<?xml version="1.0" standalone="no"?>
<!DOCTYPE svg PUBLIC "-//W3C//DTD SVG 1.1//EN" "http://www.w3.org/Graphics/SVG/1.1/DTD/svg11.dtd" >
<svg xmlns="http://www.w3.org/2000/svg" xmlns:xlink="http://www.w3.org/1999/xlink" version="1.1">
<metadata>
Created by FontForge 20190801 at Wed Jun 28 13:00:53 2023
 By root
Copyright (c) 2023 Fontwerk GmbH. All rights reserved.
</metadata>
<defs>
<font id="IberPangeaText-Regular" horiz-adv-x="0" >
  <font-face 
    font-family="IberPangea Text"
    font-weight="400"
    font-stretch="normal"
    units-per-em="1000"
    panose-1="2 11 5 4 0 0 0 0 0 0"
    ascent="770"
    descent="-230"
    x-height="505"
    cap-height="700"
    bbox="-613 -303 3620 1115"
    underline-thickness="70"
    underline-position="-100"
    unicode-range="U+000D-1F4A7"
  />
<missing-glyph horiz-adv-x="820" 
d="M145 -105v910h530v-910h-530zM593 724h-365v-748h365v748z" />
    <glyph glyph-name=".notdef" horiz-adv-x="820" 
d="M145 -105v910h530v-910h-530zM593 724h-365v-748h365v748z" />
    <glyph glyph-name="NULL" 
 />
    <glyph glyph-name="nonmarkingreturn" unicode="&#xd;" horiz-adv-x="244" 
 />
    <glyph glyph-name="space" unicode=" " horiz-adv-x="244" 
 />
    <glyph glyph-name="A" unicode="A" horiz-adv-x="691" 
d="M669 0h-96l-80 208h-296l-80 -208h-94l280 700h86zM228 287h234l-88 228q-27 67 -27 88h-4q0 -21 -27 -88z" />
    <glyph glyph-name="Aacute" unicode="&#xc1;" horiz-adv-x="691" 
d="M669 0l-280 700h-86l-280 -700h94l80 208h296l80 -208h96zM228 287l88 228q27 67 27 88h4q0 -21 27 -88l88 -228h-234zM477 933h-97l-97 -136h85z" />
    <glyph glyph-name="Abreve" unicode="&#x102;" horiz-adv-x="691" 
d="M669 0l-280 700h-86l-280 -700h94l80 208h296l80 -208h96zM228 287l88 228q27 67 27 88h4q0 -21 27 -88l88 -228h-234zM189 933q2 -65 46 -102.5t111 -37.5t111 37.5t46 102.5h-77q-1 -36 -22.5 -55t-57.5 -19t-57 18.5t-22 55.5h-78z" />
    <glyph glyph-name="uni1EAE" unicode="&#x1eae;" horiz-adv-x="691" 
d="M669 0l-280 700h-86l-280 -700h94l80 208h296l80 -208h96zM228 287l88 228q27 67 27 88h4q0 -21 27 -88l88 -228h-234zM189 921q2 -64 46 -101.5t111 -37.5t111 37.5t46 101.5h-77q-1 -36 -23 -55t-57 -19t-57 19t-23 55h-77zM373 942l78 101h-97l-65 -101h84z" />
    <glyph glyph-name="uni1EB6" unicode="&#x1eb6;" horiz-adv-x="691" 
d="M669 0l-280 700h-86l-280 -700h94l80 208h296l80 -208h96zM228 287l88 228q27 67 27 88h4q0 -21 27 -88l88 -228h-234zM189 933q2 -65 46 -102.5t111 -37.5t111 37.5t46 102.5h-77q-1 -36 -22.5 -55t-57.5 -19t-57 18.5t-22 55.5h-78zM285 -122q0 -26 17 -42.5t43 -16.5
q27 0 44.5 16.5t17.5 42.5t-18 43t-44 17t-43 -17t-17 -43z" />
    <glyph glyph-name="uni1EB0" unicode="&#x1eb0;" horiz-adv-x="691" 
d="M669 0l-280 700h-86l-280 -700h94l80 208h296l80 -208h96zM228 287l88 228q27 67 27 88h4q0 -21 27 -88l88 -228h-234zM189 921q2 -64 46 -101.5t111 -37.5t111 37.5t46 101.5h-77q-1 -36 -23 -55t-57 -19t-57 19t-23 55h-77zM403 942l-64 101h-97l78 -101h83z" />
    <glyph glyph-name="uni1EB2" unicode="&#x1eb2;" horiz-adv-x="691" 
d="M669 0l-280 700h-86l-280 -700h94l80 208h296l80 -208h96zM228 287l88 228q27 67 27 88h4q0 -21 27 -88l88 -228h-234zM189 921q2 -64 46 -101.5t111 -37.5t111 37.5t46 101.5h-77q-1 -36 -23 -55t-57 -19t-57 19t-23 55h-77zM314 954h74q37 43 37 82q0 33 -26.5 56
t-69.5 23q-28 0 -52.5 -11.5t-40.5 -33.5l44 -45q10 10 21.5 16t22.5 6q13 0 20 -6.5t7 -18.5q0 -21 -37 -68z" />
    <glyph glyph-name="uni1EB4" unicode="&#x1eb4;" horiz-adv-x="691" 
d="M669 0l-280 700h-86l-280 -700h94l80 208h296l80 -208h96zM228 287l88 228q27 67 27 88h4q0 -21 27 -88l88 -228h-234zM190 921q1 -64 45 -101.5t111 -37.5t111 37.5t46 101.5h-77q-1 -36 -23 -55t-57 -19t-56.5 19t-22.5 55h-77zM327 988q20 -13 38.5 -20.5t45.5 -7.5
q39 0 68 27t29 77h-72q0 -19 -8.5 -29t-22.5 -10q-9 0 -17 4t-21 12q-20 13 -38.5 20.5t-45.5 7.5q-39 0 -68.5 -27.5t-29.5 -77.5h73q0 20 8.5 30t22.5 10q9 0 17 -4t21 -12z" />
    <glyph glyph-name="uni01CD" unicode="&#x1cd;" horiz-adv-x="691" 
d="M669 0l-280 700h-86l-280 -700h94l80 208h296l80 -208h96zM228 287l88 228q27 67 27 88h4q0 -21 27 -88l88 -228h-234zM308 797h77l132 136h-98q-20 -21 -43 -47.5t-28 -34.5h-3q-3 8 -26.5 34.5t-43.5 47.5h-99z" />
    <glyph glyph-name="Acircumflex" unicode="&#xc2;" horiz-adv-x="691" 
d="M669 0l-280 700h-86l-280 -700h94l80 208h296l80 -208h96zM228 287l88 228q27 67 27 88h4q0 -21 27 -88l88 -228h-234zM177 797h98q20 21 43 47.5t27 34.5h3q4 -8 27.5 -34.5t43.5 -47.5h98l-132 136h-76z" />
    <glyph glyph-name="uni1EA4" unicode="&#x1ea4;" horiz-adv-x="691" 
d="M669 0l-280 700h-86l-280 -700h94l80 208h296l80 -208h96zM228 287l88 228q27 67 27 88h4q0 -21 27 -88l88 -228h-234zM177 783h99q20 21 42.5 47.5t27.5 34.5h3q3 -7 27 -34t44 -48h98l-132 136h-77zM621 1000h-95l-64 -113h81z" />
    <glyph glyph-name="uni1EAC" unicode="&#x1eac;" horiz-adv-x="691" 
d="M669 0l-280 700h-86l-280 -700h94l80 208h296l80 -208h96zM228 287l88 228q27 67 27 88h4q0 -21 27 -88l88 -228h-234zM177 797h98q20 21 43 47.5t27 34.5h3q4 -8 27.5 -34.5t43.5 -47.5h98l-132 136h-76zM285 -122q0 -26 17 -42.5t43 -16.5q27 0 44.5 16.5t17.5 42.5
t-18 43t-44 17t-43 -17t-17 -43z" />
    <glyph glyph-name="uni1EA6" unicode="&#x1ea6;" horiz-adv-x="691" 
d="M669 0l-280 700h-86l-280 -700h94l80 208h296l80 -208h96zM228 287l88 228q27 67 27 88h4q0 -21 27 -88l88 -228h-234zM176 783h99q20 21 42.5 47.5t27.5 34.5h3q3 -7 27 -34t44 -48h98l-132 136h-77zM560 887l-65 113h-94l78 -113h81z" />
    <glyph glyph-name="uni1EA8" unicode="&#x1ea8;" horiz-adv-x="691" 
d="M669 0l-280 700h-86l-280 -700h94l80 208h296l80 -208h96zM228 287l88 228q27 67 27 88h4q0 -21 27 -88l88 -228h-234zM176 782h99q20 21 42.5 47.5t27.5 34.5h3q3 -7 27 -34t44 -48h98l-132 136h-77zM449 893h74q37 43 37 82q0 33 -26.5 56t-69.5 23q-28 0 -53 -11.5
t-41 -33.5l45 -45q9 10 20.5 16.5t22.5 6.5q13 0 20.5 -7t7.5 -18q0 -22 -37 -69z" />
    <glyph glyph-name="uni1EAA" unicode="&#x1eaa;" horiz-adv-x="691" 
d="M669 0l-280 700h-86l-280 -700h94l80 208h296l80 -208h96zM228 287l88 228q27 67 27 88h4q0 -21 27 -88l88 -228h-234zM328 985q22 -13 40 -20t44 -7q39 0 68.5 27.5t29.5 78.5h-73q0 -19 -8.5 -29t-21.5 -10q-9 0 -17.5 4t-21.5 12q-19 13 -37.5 20.5t-45.5 7.5
q-40 0 -69 -28t-29 -79h72q0 20 8.5 29.5t22.5 9.5q9 0 17 -4t21 -12zM176 782h99q19 21 42 47.5t28 34.5h3q5 -11 70 -82h99l-132 136h-77z" />
    <glyph glyph-name="Adieresis" unicode="&#xc4;" horiz-adv-x="691" 
d="M669 0l-280 700h-86l-280 -700h94l80 208h296l80 -208h96zM228 287l88 228q27 67 27 88h4q0 -21 27 -88l88 -228h-234zM178 872q0 -25 16 -40t40 -15t40 15t16 40t-16 40t-40 15t-40 -15t-16 -40zM402 872q0 -25 16 -40t40 -15t40 15t16 40t-16 40t-40 15t-40 -15
t-16 -40z" />
    <glyph glyph-name="uni1EA0" unicode="&#x1ea0;" horiz-adv-x="691" 
d="M669 0l-280 700h-86l-280 -700h94l80 208h296l80 -208h96zM228 287l88 228q27 67 27 88h4q0 -21 27 -88l88 -228h-234zM285 -122q0 -26 17 -42.5t43 -16.5q27 0 44.5 16.5t17.5 42.5t-18 43t-44 17t-43 -17t-17 -43z" />
    <glyph glyph-name="Agrave" unicode="&#xc0;" horiz-adv-x="691" 
d="M669 0l-280 700h-86l-280 -700h94l80 208h296l80 -208h96zM228 287l88 228q27 67 27 88h4q0 -21 27 -88l88 -228h-234zM409 797l-97 136h-97l109 -136h85z" />
    <glyph glyph-name="uni1EA2" unicode="&#x1ea2;" horiz-adv-x="691" 
d="M669 0l-280 700h-86l-280 -700h94l80 208h296l80 -208h96zM228 287l88 228q27 67 27 88h4q0 -21 27 -88l88 -228h-234zM330 769h74q37 43 37 82q0 33 -26.5 56t-69.5 23q-28 0 -52.5 -11.5t-41.5 -33.5l45 -45q10 10 21.5 16.5t21.5 6.5q13 0 20.5 -7t7.5 -18
q0 -22 -37 -69z" />
    <glyph glyph-name="Amacron" unicode="&#x100;" horiz-adv-x="691" 
d="M669 0l-280 700h-86l-280 -700h94l80 208h296l80 -208h96zM228 287l88 228q27 67 27 88h4q0 -21 27 -88l88 -228h-234zM503 831v72h-313v-72h313z" />
    <glyph glyph-name="Aogonek" unicode="&#x104;" horiz-adv-x="691" 
d="M686 -97v-75h-52q-45 0 -70.5 21t-25.5 53q0 41 38 75l26 23h-29l-80 208h-296l-80 -208h-94l280 700h86l280 -700h2l-32 -34q-19 -20 -19 -38q0 -11 8 -18t23 -7h35zM228 287h234l-88 228q-27 67 -27 88h-4q0 -21 -27 -88z" />
    <glyph glyph-name="Aring" unicode="&#xc5;" horiz-adv-x="691" 
d="M669 0l-280 700h-86l-280 -700h94l80 208h296l80 -208h96zM224 875q0 -45 34.5 -74t87.5 -29t87.5 29t34.5 74q0 46 -34.5 75.5t-87.5 29.5t-87.5 -29.5t-34.5 -75.5zM228 287l88 228q27 67 27 88h4q0 -21 27 -88l88 -228h-234zM403 875q0 -21 -15 -33.5t-42 -12.5
q-26 0 -41 12.5t-15 33.5t15 34t41 13q27 0 42 -13t15 -34z" />
    <glyph glyph-name="Atilde" unicode="&#xc3;" horiz-adv-x="691" 
d="M669 0l-280 700h-86l-280 -700h94l80 208h296l80 -208h96zM228 287l88 228q27 67 27 88h4q0 -21 27 -88l88 -228h-234zM329 836q22 -17 40 -26.5t44 -9.5q41 0 70.5 30.5t29.5 91.5h-73q0 -52 -30 -52q-9 0 -17 5t-22 16q-19 17 -38 27t-46 10q-41 0 -70.5 -31t-29.5 -92
h73q0 52 31 52q9 0 17 -5t21 -16z" />
    <glyph glyph-name="AE" unicode="&#xc6;" horiz-adv-x="1015" 
d="M495 700h466v-82h-358v-223h318v-81h-318v-232h358v-82h-448v188h-274l-131 -188h-102zM513 491q0 84 6 105l-3 1q-8 -22 -55 -90l-132 -188q-32 -47 -50 -57l2 -3q16 8 75 8h157v224z" />
    <glyph glyph-name="uni01E2" unicode="&#x1e2;" horiz-adv-x="1015" 
d="M495 700l-489 -700h102l131 188h274v-188h448v82h-358v232h318v81h-318v223h358v82h-466zM513 491v-224h-157q-59 0 -75 -8l-2 3q18 10 50 57l132 188q47 68 55 90l3 -1q-6 -21 -6 -105zM877 831v72h-313v-72h313z" />
    <glyph glyph-name="B" unicode="B" horiz-adv-x="669" 
d="M581.5 309.5q37.5 -44.5 37.5 -110.5q0 -98 -66.5 -148.5t-181.5 -50.5h-284v700h261q111 0 173.5 -46t62.5 -138q0 -52 -28.5 -89.5t-77.5 -55.5q66 -17 103.5 -61.5zM177 619v-215h168q70 0 108 24t38 84q0 59 -38 83t-108 24h-168zM369 81q76 0 116 28.5t40 93.5
q0 66 -40 94.5t-116 28.5h-192v-245h192z" />
    <glyph glyph-name="C" unicode="C" horiz-adv-x="722" 
d="M220.5 35.5q-78.5 45.5 -122.5 127.5t-44 187t44 187t122.5 127.5t178.5 45.5q96 0 171.5 -44t117.5 -124l-78 -48q-31 62 -86 96.5t-125 34.5q-72 0 -129 -33.5t-89.5 -95.5t-32.5 -146t32.5 -146t89.5 -95.5t129 -33.5q70 0 125 34.5t86 96.5l78 -48
q-42 -80 -117.5 -124t-171.5 -44q-100 0 -178.5 45.5z" />
    <glyph glyph-name="Cacute" unicode="&#x106;" horiz-adv-x="722" 
d="M54 350q0 -105 44 -187t122.5 -127.5t178.5 -45.5q96 0 171.5 44t117.5 124l-78 48q-31 -62 -86 -96.5t-125 -34.5q-72 0 -129 33.5t-89.5 95.5t-32.5 146t32.5 146t89.5 95.5t129 33.5q70 0 125 -34.5t86 -96.5l78 48q-42 80 -117.5 124t-171.5 44q-100 0 -178.5 -45.5
t-122.5 -127.5t-44 -187zM533 933h-97l-97 -136h85z" />
    <glyph glyph-name="Ccaron" unicode="&#x10c;" horiz-adv-x="722" 
d="M54 350q0 -105 44 -187t122.5 -127.5t178.5 -45.5q96 0 171.5 44t117.5 124l-78 48q-31 -62 -86 -96.5t-125 -34.5q-72 0 -129 33.5t-89.5 95.5t-32.5 146t32.5 146t89.5 95.5t129 33.5q70 0 125 -34.5t86 -96.5l78 48q-42 80 -117.5 124t-171.5 44q-100 0 -178.5 -45.5
t-122.5 -127.5t-44 -187zM363 797h77l132 136h-98q-20 -21 -43 -47.5t-28 -34.5h-3q-3 8 -26.5 34.5t-43.5 47.5h-99z" />
    <glyph glyph-name="Ccedilla" unicode="&#xc7;" horiz-adv-x="722" 
d="M524 109.5q55 34.5 86 96.5l78 -48q-38 -72 -102.5 -115t-148.5 -51l17 -15q38 -34 38 -75q0 -32 -25 -53t-71 -21h-72v75h56q14 0 22 7t8 18q0 17 -18 38l-24 25q-92 7 -163.5 54t-111 126t-39.5 179q0 105 44 187t122.5 127.5t178.5 45.5q96 0 171.5 -44t117.5 -124
l-78 -48q-31 62 -86 96.5t-125 34.5q-72 0 -129 -33.5t-89.5 -95.5t-32.5 -146t32.5 -146t89.5 -95.5t129 -33.5q70 0 125 34.5z" />
    <glyph glyph-name="Ccircumflex" unicode="&#x108;" horiz-adv-x="722" 
d="M54 350q0 -105 44 -187t122.5 -127.5t178.5 -45.5q96 0 171.5 44t117.5 124l-78 48q-31 -62 -86 -96.5t-125 -34.5q-72 0 -129 33.5t-89.5 95.5t-32.5 146t32.5 146t89.5 95.5t129 33.5q70 0 125 -34.5t86 -96.5l78 48q-42 80 -117.5 124t-171.5 44q-100 0 -178.5 -45.5
t-122.5 -127.5t-44 -187zM232 797h98q20 21 43 47.5t27 34.5h3q4 -8 27.5 -34.5t43.5 -47.5h98l-132 136h-76z" />
    <glyph glyph-name="Cdotaccent" unicode="&#x10a;" horiz-adv-x="722" 
d="M54 350q0 -105 44 -187t122.5 -127.5t178.5 -45.5q96 0 171.5 44t117.5 124l-78 48q-31 -62 -86 -96.5t-125 -34.5q-72 0 -129 33.5t-89.5 95.5t-32.5 146t32.5 146t89.5 95.5t129 33.5q70 0 125 -34.5t86 -96.5l78 48q-42 80 -117.5 124t-171.5 44q-100 0 -178.5 -45.5
t-122.5 -127.5t-44 -187zM341 877q0 -27 17 -43.5t43 -16.5q27 0 44.5 16.5t17.5 43.5q0 25 -18 42t-44 17t-43 -17t-17 -42z" />
    <glyph glyph-name="D" unicode="D" horiz-adv-x="751" 
d="M529 657q80 -43 124 -122t44 -185t-44 -185t-124 -122t-187 -43h-255v700h255q107 0 187 -43zM339 82q127 0 195.5 72t68.5 196q0 125 -68.5 196.5t-195.5 71.5h-162v-536h162z" />
    <glyph glyph-name="uni01F1" unicode="&#x1f1;" horiz-adv-x="1283" 
d="M697 350q0 106 -44 185t-124 122t-187 43h-255v-700h255q107 0 187 43t124 122t44 185zM339 82h-162v536h162q127 0 195.5 -71.5t68.5 -196.5q0 -124 -68.5 -196t-195.5 -72zM727 0h513v82h-332q-60 0 -77 -8l-1 3q15 9 51 58l357 495v70h-504v-82h323q60 0 77 8l1 -3
q-15 -9 -51 -58l-357 -495v-70z" />
    <glyph glyph-name="uni01C4" unicode="&#x1c4;" horiz-adv-x="1283" 
d="M697 350q0 106 -44 185t-124 122t-187 43h-255v-700h255q107 0 187 43t124 122t44 185zM339 82h-162v536h162q127 0 195.5 -71.5t68.5 -196.5q0 -124 -68.5 -196t-195.5 -72zM727 0h513v82h-332q-60 0 -77 -8l-1 3q15 9 51 58l357 495v70h-504v-82h323q60 0 77 8l1 -3
q-15 -9 -51 -58l-357 -495v-70zM947 797h77l132 136h-98q-20 -21 -43 -47.5t-28 -34.5h-3q-3 8 -26.5 34.5t-43.5 47.5h-99z" />
    <glyph glyph-name="Eth" unicode="&#xd0;" horiz-adv-x="780" 
d="M558 657q80 -43 124 -122t44 -185t-44 -185t-124 -122t-187 -43h-255v314h-85v78h85v308h255q107 0 187 -43zM368 82q128 0 196 71.5t68 196.5t-68 196.5t-196 71.5h-162v-226h158v-78h-158v-232h162z" />
    <glyph glyph-name="Dcaron" unicode="&#x10e;" horiz-adv-x="751" 
d="M697 350q0 106 -44 185t-124 122t-187 43h-255v-700h255q107 0 187 43t124 122t44 185zM339 82h-162v536h162q127 0 195.5 -71.5t68.5 -196.5q0 -124 -68.5 -196t-195.5 -72zM311 797h77l132 136h-98q-20 -21 -43 -47.5t-28 -34.5h-3q-3 8 -26.5 34.5t-43.5 47.5h-99z
" />
    <glyph glyph-name="Dcroat" unicode="&#x110;" horiz-adv-x="780" 
d="M726 350q0 106 -44 185t-124 122t-187 43h-255v-308h-85v-78h85v-314h255q107 0 187 43t124 122t44 185zM368 82h-162v232h158v78h-158v226h162q128 0 196 -71.5t68 -196.5t-68 -196.5t-196 -71.5z" />
    <glyph glyph-name="uni1E0C" unicode="&#x1e0c;" horiz-adv-x="751" 
d="M697 350q0 106 -44 185t-124 122t-187 43h-255v-700h255q107 0 187 43t124 122t44 185zM339 82h-162v536h162q127 0 195.5 -71.5t68.5 -196.5q0 -124 -68.5 -196t-195.5 -72zM303 -122q0 -26 17 -42.5t43 -16.5q27 0 44.5 16.5t17.5 42.5t-18 43t-44 17t-43 -17t-17 -43z
" />
    <glyph glyph-name="uni1E0E" unicode="&#x1e0e;" horiz-adv-x="751" 
d="M697 350q0 106 -44 185t-124 122t-187 43h-255v-700h255q107 0 187 43t124 122t44 185zM339 82h-162v536h162q127 0 195.5 -71.5t68.5 -196.5q0 -124 -68.5 -196t-195.5 -72zM520 -142v72h-313v-72h313z" />
    <glyph glyph-name="uni01F2" unicode="&#x1f2;" horiz-adv-x="1208" 
d="M697 350q0 106 -44 185t-124 122t-187 43h-255v-700h255q107 0 187 43t124 122t44 185zM339 82h-162v536h162q127 0 195.5 -71.5t68.5 -196.5q0 -124 -68.5 -196t-195.5 -72zM910 129l247 312v64h-392v-76h212q64 0 81 8l1 -3q-14 -8 -56 -58l-250 -314v-62h410v76h-227
q-63 0 -80 -8l-1 3q15 9 55 58z" />
    <glyph glyph-name="uni01C5" unicode="&#x1c5;" horiz-adv-x="1208" 
d="M697 350q0 106 -44 185t-124 122t-187 43h-255v-700h255q107 0 187 43t124 122t44 185zM339 82h-162v536h162q127 0 195.5 -71.5t68.5 -196.5q0 -124 -68.5 -196t-195.5 -72zM910 129l247 312v64h-392v-76h212q64 0 81 8l1 -3q-14 -8 -56 -58l-250 -314v-62h410v76h-227
q-63 0 -80 -8l-1 3q15 9 55 58zM925 602h77l132 136h-98q-20 -21 -43 -47.5t-28 -34.5h-3q-3 8 -26.5 34.5t-43.5 47.5h-99z" />
    <glyph glyph-name="E" unicode="E" horiz-adv-x="615" 
d="M560 700v-82h-383v-223h343v-81h-343v-232h383v-82h-473v700h473z" />
    <glyph glyph-name="Eacute" unicode="&#xc9;" horiz-adv-x="615" 
d="M560 700h-473v-700h473v82h-383v232h343v81h-343v223h383v82zM456 933h-97l-97 -136h85z" />
    <glyph glyph-name="Ebreve" unicode="&#x114;" horiz-adv-x="615" 
d="M560 700h-473v-700h473v82h-383v232h343v81h-343v223h383v82zM167 933q2 -65 46 -102.5t111 -37.5t111 37.5t46 102.5h-77q-1 -36 -22.5 -55t-57.5 -19t-57 18.5t-22 55.5h-78z" />
    <glyph glyph-name="Ecaron" unicode="&#x11a;" horiz-adv-x="615" 
d="M560 700h-473v-700h473v82h-383v232h343v81h-343v223h383v82zM286 797h77l132 136h-98q-20 -21 -43 -47.5t-28 -34.5h-3q-3 8 -26.5 34.5t-43.5 47.5h-99z" />
    <glyph glyph-name="Ecircumflex" unicode="&#xca;" horiz-adv-x="615" 
d="M560 700h-473v-700h473v82h-383v232h343v81h-343v223h383v82zM155 797h98q20 21 43 47.5t27 34.5h3q4 -8 27.5 -34.5t43.5 -47.5h98l-132 136h-76z" />
    <glyph glyph-name="uni1EBE" unicode="&#x1ebe;" horiz-adv-x="615" 
d="M560 700h-473v-700h473v82h-383v232h343v81h-343v223h383v82zM155 783h99q20 21 42.5 47.5t27.5 34.5h3q3 -7 27 -34t44 -48h98l-132 136h-77zM599 1000h-95l-64 -113h81z" />
    <glyph glyph-name="uni1EC6" unicode="&#x1ec6;" horiz-adv-x="615" 
d="M560 700h-473v-700h473v82h-383v232h343v81h-343v223h383v82zM155 797h98q20 21 43 47.5t27 34.5h3q4 -8 27.5 -34.5t43.5 -47.5h98l-132 136h-76zM263 -122q0 -26 17 -42.5t43 -16.5q27 0 44.5 16.5t17.5 42.5t-18 43t-44 17t-43 -17t-17 -43z" />
    <glyph glyph-name="uni1EC0" unicode="&#x1ec0;" horiz-adv-x="615" 
d="M560 700h-473v-700h473v82h-383v232h343v81h-343v223h383v82zM154 783h99q20 21 42.5 47.5t27.5 34.5h3q3 -7 27 -34t44 -48h98l-132 136h-77zM538 887l-65 113h-94l78 -113h81z" />
    <glyph glyph-name="uni1EC2" unicode="&#x1ec2;" horiz-adv-x="615" 
d="M560 700h-473v-700h473v82h-383v232h343v81h-343v223h383v82zM154 782h99q20 21 42.5 47.5t27.5 34.5h3q3 -7 27 -34t44 -48h98l-132 136h-77zM427 893h74q37 43 37 82q0 33 -26.5 56t-69.5 23q-28 0 -53 -11.5t-41 -33.5l45 -45q9 10 20.5 16.5t22.5 6.5q13 0 20.5 -7
t7.5 -18q0 -22 -37 -69z" />
    <glyph glyph-name="uni1EC4" unicode="&#x1ec4;" horiz-adv-x="615" 
d="M560 700h-473v-700h473v82h-383v232h343v81h-343v223h383v82zM306 985q22 -13 40 -20t44 -7q39 0 68.5 27.5t29.5 78.5h-73q0 -19 -8.5 -29t-21.5 -10q-9 0 -17.5 4t-21.5 12q-19 13 -37.5 20.5t-45.5 7.5q-40 0 -69 -28t-29 -79h72q0 20 8.5 29.5t22.5 9.5q9 0 17 -4
t21 -12zM154 782h99q19 21 42 47.5t28 34.5h3q5 -11 70 -82h99l-132 136h-77z" />
    <glyph glyph-name="Edieresis" unicode="&#xcb;" horiz-adv-x="615" 
d="M560 700h-473v-700h473v82h-383v232h343v81h-343v223h383v82zM156 872q0 -25 16 -40t40 -15t40 15t16 40t-16 40t-40 15t-40 -15t-16 -40zM380 872q0 -25 16 -40t40 -15t40 15t16 40t-16 40t-40 15t-40 -15t-16 -40z" />
    <glyph glyph-name="Edotaccent" unicode="&#x116;" horiz-adv-x="615" 
d="M560 700h-473v-700h473v82h-383v232h343v81h-343v223h383v82zM264 877q0 -27 17 -43.5t43 -16.5q27 0 44.5 16.5t17.5 43.5q0 25 -18 42t-44 17t-43 -17t-17 -42z" />
    <glyph glyph-name="uni1EB8" unicode="&#x1eb8;" horiz-adv-x="615" 
d="M560 700h-473v-700h473v82h-383v232h343v81h-343v223h383v82zM263 -122q0 -26 17 -42.5t43 -16.5q27 0 44.5 16.5t17.5 42.5t-18 43t-44 17t-43 -17t-17 -43z" />
    <glyph glyph-name="Egrave" unicode="&#xc8;" horiz-adv-x="615" 
d="M560 700h-473v-700h473v82h-383v232h343v81h-343v223h383v82zM387 797l-97 136h-97l109 -136h85z" />
    <glyph glyph-name="uni1EBA" unicode="&#x1eba;" horiz-adv-x="615" 
d="M560 700h-473v-700h473v82h-383v232h343v81h-343v223h383v82zM308 769h74q37 43 37 82q0 33 -26.5 56t-69.5 23q-28 0 -52.5 -11.5t-41.5 -33.5l45 -45q10 10 21.5 16.5t21.5 6.5q13 0 20.5 -7t7.5 -18q0 -22 -37 -69z" />
    <glyph glyph-name="Emacron" unicode="&#x112;" horiz-adv-x="615" 
d="M560 700h-473v-700h473v82h-383v232h343v81h-343v223h383v82zM481 831v72h-313v-72h313z" />
    <glyph glyph-name="Eogonek" unicode="&#x118;" horiz-adv-x="615" 
d="M560 618h-383v-223h343v-81h-343v-232h383v-82h-53l-32 -34q-19 -20 -19 -38q0 -11 8 -18t23 -7h35v-75h-52q-45 0 -70.5 21t-25.5 53q0 41 38 75l26 23h-351v700h473v-82z" />
    <glyph glyph-name="uni1EBC" unicode="&#x1ebc;" horiz-adv-x="615" 
d="M560 700h-473v-700h473v82h-383v232h343v81h-343v223h383v82zM307 836q22 -17 40 -26.5t44 -9.5q41 0 70.5 30.5t29.5 91.5h-73q0 -52 -30 -52q-9 0 -17 5t-22 16q-19 17 -38 27t-46 10q-41 0 -70.5 -31t-29.5 -92h73q0 52 31 52q9 0 17 -5t21 -16z" />
    <glyph glyph-name="F" unicode="F" horiz-adv-x="593" 
d="M553 700v-83h-377v-238h337v-82h-337v-297h-89v700h466z" />
    <glyph glyph-name="G" unicode="G" horiz-adv-x="775" 
d="M725 369q1 -11 1 -32q0 -106 -42 -184.5t-116.5 -120t-170.5 -41.5t-174.5 44.5t-123.5 126t-45 188.5t44.5 189t123.5 126.5t178 44.5q91 0 169 -42t125 -123l-74 -49q-36 64 -93 96.5t-128 32.5t-128.5 -33t-90 -95.5t-32.5 -146.5t33 -146t90 -95.5t126 -33.5
q99 0 160.5 56.5t74.5 158.5h-235v79h328z" />
    <glyph glyph-name="Gbreve" unicode="&#x11e;" horiz-adv-x="775" 
d="M725 369h-328v-79h235q-13 -102 -74.5 -158.5t-160.5 -56.5q-69 0 -126 33.5t-90 95.5t-33 146t32.5 146.5t90 95.5t128.5 33t128 -32.5t93 -96.5l74 49q-47 81 -125 123t-169 42q-99 0 -178 -44.5t-123.5 -126.5t-44.5 -189t45 -188.5t123.5 -126t174.5 -44.5
t170.5 41.5t116.5 120t42 184.5q0 21 -1 32zM239 933q2 -65 46 -102.5t111 -37.5t111 37.5t46 102.5h-77q-1 -36 -22.5 -55t-57.5 -19t-57 18.5t-22 55.5h-78z" />
    <glyph glyph-name="Gcaron" unicode="&#x1e6;" horiz-adv-x="775" 
d="M725 369h-328v-79h235q-13 -102 -74.5 -158.5t-160.5 -56.5q-69 0 -126 33.5t-90 95.5t-33 146t32.5 146.5t90 95.5t128.5 33t128 -32.5t93 -96.5l74 49q-47 81 -125 123t-169 42q-99 0 -178 -44.5t-123.5 -126.5t-44.5 -189t45 -188.5t123.5 -126t174.5 -44.5
t170.5 41.5t116.5 120t42 184.5q0 21 -1 32zM358 797h77l132 136h-98q-20 -21 -43 -47.5t-28 -34.5h-3q-3 8 -26.5 34.5t-43.5 47.5h-99z" />
    <glyph glyph-name="Gcircumflex" unicode="&#x11c;" horiz-adv-x="775" 
d="M725 369h-328v-79h235q-13 -102 -74.5 -158.5t-160.5 -56.5q-69 0 -126 33.5t-90 95.5t-33 146t32.5 146.5t90 95.5t128.5 33t128 -32.5t93 -96.5l74 49q-47 81 -125 123t-169 42q-99 0 -178 -44.5t-123.5 -126.5t-44.5 -189t45 -188.5t123.5 -126t174.5 -44.5
t170.5 41.5t116.5 120t42 184.5q0 21 -1 32zM227 797h98q20 21 43 47.5t27 34.5h3q4 -8 27.5 -34.5t43.5 -47.5h98l-132 136h-76z" />
    <glyph glyph-name="uni0122" unicode="&#x122;" horiz-adv-x="775" 
d="M725 369h-328v-79h235q-13 -102 -74.5 -158.5t-160.5 -56.5q-69 0 -126 33.5t-90 95.5t-33 146t32.5 146.5t90 95.5t128.5 33t128 -32.5t93 -96.5l74 49q-47 81 -125 123t-169 42q-99 0 -178 -44.5t-123.5 -126.5t-44.5 -189t45 -188.5t123.5 -126t174.5 -44.5
t170.5 41.5t116.5 120t42 184.5q0 21 -1 32zM456 -115q0 22 -17 36.5t-43 14.5q-25 0 -41.5 -14t-16.5 -36q0 -17 11.5 -29.5t31.5 -16.5l-42 -61l46 -27l50 77q21 31 21 56z" />
    <glyph glyph-name="Gdotaccent" unicode="&#x120;" horiz-adv-x="775" 
d="M725 369h-328v-79h235q-13 -102 -74.5 -158.5t-160.5 -56.5q-69 0 -126 33.5t-90 95.5t-33 146t32.5 146.5t90 95.5t128.5 33t128 -32.5t93 -96.5l74 49q-47 81 -125 123t-169 42q-99 0 -178 -44.5t-123.5 -126.5t-44.5 -189t45 -188.5t123.5 -126t174.5 -44.5
t170.5 41.5t116.5 120t42 184.5q0 21 -1 32zM336 877q0 -27 17 -43.5t43 -16.5q27 0 44.5 16.5t17.5 43.5q0 25 -18 42t-44 17t-43 -17t-17 -42z" />
    <glyph glyph-name="H" unicode="H" horiz-adv-x="735" 
d="M558 394v306h90v-700h-90v312h-382v-312h-89v700h89v-306h382z" />
    <glyph glyph-name="Hbar" unicode="&#x126;" horiz-adv-x="789" 
d="M675 575h79v-73h-79v-502h-90v312h-382v-312h-89v502h-79v73h79v125h89v-125h382v125h90v-125zM203 394h382v108h-382v-108z" />
    <glyph glyph-name="uni1E2A" unicode="&#x1e2a;" horiz-adv-x="735" 
d="M558 394h-382v306h-89v-700h89v312h382v-312h90v700h-90v-306zM205 -81q2 -65 46 -102.5t111 -37.5t111 37.5t46 102.5h-77q-1 -36 -22.5 -55t-57.5 -19t-57 18.5t-22 55.5h-78z" />
    <glyph glyph-name="uni1E28" unicode="&#x1e28;" horiz-adv-x="735" 
d="M558 700h90v-700h-90v312h-382v-312h-19l25 -23q38 -34 38 -75q0 -32 -25 -53t-71 -21h-72v75h56q14 0 22.5 7t8.5 18q0 18 -19 38l-33 34v700h89v-306h382v306z" />
    <glyph glyph-name="Hcircumflex" unicode="&#x124;" horiz-adv-x="735" 
d="M558 394h-382v306h-89v-700h89v312h382v-312h90v700h-90v-306zM193 797h98q20 21 43 47.5t27 34.5h3q4 -8 27.5 -34.5t43.5 -47.5h98l-132 136h-76z" />
    <glyph glyph-name="uni1E24" unicode="&#x1e24;" horiz-adv-x="735" 
d="M558 394h-382v306h-89v-700h89v312h382v-312h90v700h-90v-306zM301 -122q0 -26 17 -42.5t43 -16.5q27 0 44.5 16.5t17.5 42.5t-18 43t-44 17t-43 -17t-17 -43z" />
    <glyph glyph-name="I" unicode="I" horiz-adv-x="263" 
d="M87 700h90v-700h-90v700z" />
    <glyph glyph-name="Iacute" unicode="&#xcd;" horiz-adv-x="263" 
d="M87 700v-700h90v700h-90zM262 933h-97l-97 -136h85z" />
    <glyph glyph-name="Ibreve" unicode="&#x12c;" horiz-adv-x="263" 
d="M87 700v-700h90v700h-90zM-26 933q2 -65 46 -102.5t111 -37.5t111 37.5t46 102.5h-77q-1 -36 -22.5 -55t-57.5 -19t-57 18.5t-22 55.5h-78z" />
    <glyph glyph-name="uni01CF" unicode="&#x1cf;" horiz-adv-x="263" 
d="M87 700v-700h90v700h-90zM93 797h77l132 136h-98q-20 -21 -43 -47.5t-28 -34.5h-3q-3 8 -26.5 34.5t-43.5 47.5h-99z" />
    <glyph glyph-name="Icircumflex" unicode="&#xce;" horiz-adv-x="263" 
d="M87 700v-700h90v700h-90zM-38 797h98q20 21 43 47.5t27 34.5h3q4 -8 27.5 -34.5t43.5 -47.5h98l-132 136h-76z" />
    <glyph glyph-name="Idieresis" unicode="&#xcf;" horiz-adv-x="263" 
d="M87 700v-700h90v700h-90zM-37 872q0 -25 16 -40t40 -15t40 15t16 40t-16 40t-40 15t-40 -15t-16 -40zM187 872q0 -25 16 -40t40 -15t40 15t16 40t-16 40t-40 15t-40 -15t-16 -40z" />
    <glyph glyph-name="Idotaccent" unicode="&#x130;" horiz-adv-x="263" 
d="M87 700v-700h90v700h-90zM71 877q0 -27 17 -43.5t43 -16.5q27 0 44.5 16.5t17.5 43.5q0 25 -18 42t-44 17t-43 -17t-17 -42z" />
    <glyph glyph-name="uni1ECA" unicode="&#x1eca;" horiz-adv-x="263" 
d="M87 700v-700h90v700h-90zM70 -122q0 -26 17 -42.5t43 -16.5q27 0 44.5 16.5t17.5 42.5t-18 43t-44 17t-43 -17t-17 -43z" />
    <glyph glyph-name="Igrave" unicode="&#xcc;" horiz-adv-x="263" 
d="M87 700v-700h90v700h-90zM194 797l-97 136h-97l109 -136h85z" />
    <glyph glyph-name="uni1EC8" unicode="&#x1ec8;" horiz-adv-x="263" 
d="M87 700v-700h90v700h-90zM115 769h74q37 43 37 82q0 33 -26.5 56t-69.5 23q-28 0 -52.5 -11.5t-41.5 -33.5l45 -45q10 10 21.5 16.5t21.5 6.5q13 0 20.5 -7t7.5 -18q0 -22 -37 -69z" />
    <glyph glyph-name="Imacron" unicode="&#x12a;" horiz-adv-x="263" 
d="M87 700v-700h90v700h-90zM288 831v72h-313v-72h313z" />
    <glyph glyph-name="Iogonek" unicode="&#x12e;" horiz-adv-x="263" 
d="M191 -97v-75h-52q-45 0 -70.5 21t-25.5 53q0 41 38 75l26 23h-20v700h90v-700h-1l-32 -34q-19 -20 -19 -38q0 -11 8 -18t23 -7h35z" />
    <glyph glyph-name="Itilde" unicode="&#x128;" horiz-adv-x="263" 
d="M87 700v-700h90v700h-90zM114 836q22 -17 40 -26.5t44 -9.5q41 0 70.5 30.5t29.5 91.5h-73q0 -52 -30 -52q-9 0 -17 5t-22 16q-19 17 -38 27t-46 10q-41 0 -70.5 -31t-29.5 -92h73q0 52 31 52q9 0 17 -5t21 -16z" />
    <glyph glyph-name="J" unicode="J" horiz-adv-x="531" 
d="M105 29.5q-53 38.5 -82 102.5l73 42q17 -44 51.5 -71.5t83.5 -27.5q60 0 94.5 37t34.5 110v478h90v-483q0 -72 -27.5 -123t-76.5 -77t-112 -26q-76 0 -129 38.5z" />
    <glyph glyph-name="Jcircumflex" unicode="&#x134;" horiz-adv-x="531" 
d="M23 132q29 -64 82 -102.5t129 -38.5q63 0 112 26t76.5 77t27.5 123v483h-90v-478q0 -73 -34.5 -110t-94.5 -37q-49 0 -83.5 27.5t-51.5 71.5zM235 797h98q20 21 43 47.5t27 34.5h3q4 -8 27.5 -34.5t43.5 -47.5h98l-132 136h-76z" />
    <glyph glyph-name="K" unicode="K" horiz-adv-x="648" 
d="M277 356l369 -356h-124l-345 334v-334h-90v700h90v-333l326 333h118z" />
    <glyph glyph-name="uni0136" unicode="&#x136;" horiz-adv-x="648" 
d="M277 356l344 344h-118l-326 -333v333h-90v-700h90v334l345 -334h124zM391 -115q0 22 -17 36.5t-43 14.5q-25 0 -41.5 -14t-16.5 -36q0 -17 11.5 -29.5t31.5 -16.5l-42 -61l46 -27l50 77q21 31 21 56z" />
    <glyph glyph-name="uni1E32" unicode="&#x1e32;" horiz-adv-x="648" 
d="M277 356l344 344h-118l-326 -333v333h-90v-700h90v334l345 -334h124zM271 -122q0 -26 17 -42.5t43 -16.5q27 0 44.5 16.5t17.5 42.5t-18 43t-44 17t-43 -17t-17 -43z" />
    <glyph glyph-name="L" unicode="L" horiz-adv-x="559" 
d="M177 700v-617h350v-83h-440v700h90z" />
    <glyph glyph-name="uni01C7" unicode="&#x1c7;" horiz-adv-x="1062" 
d="M177 700h-90v-700h440v83h-350v617zM553 132q29 -64 82 -102.5t129 -38.5q63 0 112 26t76.5 77t27.5 123v483h-90v-478q0 -73 -34.5 -110t-94.5 -37q-49 0 -83.5 27.5t-51.5 71.5z" />
    <glyph glyph-name="Lacute" unicode="&#x139;" horiz-adv-x="559" 
d="M177 700h-90v-700h440v83h-350v617zM262 933h-97l-97 -136h85z" />
    <glyph glyph-name="Lcaron" unicode="&#x13d;" horiz-adv-x="559" 
d="M177 700h-90v-700h440v83h-350v617zM292 497h54l23 105v98h-77v-203z" />
    <glyph glyph-name="uni013B" unicode="&#x13b;" horiz-adv-x="559" 
d="M177 700h-90v-700h440v83h-350v617zM366 -115q0 22 -17 36.5t-43 14.5q-25 0 -41.5 -14t-16.5 -36q0 -17 11.5 -29.5t31.5 -16.5l-42 -61l46 -27l50 77q21 31 21 56z" />
    <glyph glyph-name="Ldot" unicode="&#x13f;" horiz-adv-x="559" 
d="M177 700v-617h350v-83h-440v700h90zM365.5 311.5q-17.5 16.5 -17.5 42.5t17.5 42.5t43.5 16.5t43.5 -16.5t17.5 -42.5t-17.5 -42.5t-43.5 -16.5t-43.5 16.5z" />
    <glyph glyph-name="uni1E36" unicode="&#x1e36;" horiz-adv-x="559" 
d="M177 700h-90v-700h440v83h-350v617zM246 -122q0 -26 17 -42.5t43 -16.5q27 0 44.5 16.5t17.5 42.5t-18 43t-44 17t-43 -17t-17 -43z" />
    <glyph glyph-name="uni1E38" unicode="&#x1e38;" horiz-adv-x="559" 
d="M177 700h-90v-700h440v83h-350v617zM288 831v72h-313v-72h313zM246 -122q0 -26 17 -42.5t43 -16.5q27 0 44.5 16.5t17.5 42.5t-18 43t-44 17t-43 -17t-17 -43z" />
    <glyph glyph-name="uni01C8" unicode="&#x1c8;" horiz-adv-x="756" 
d="M177 700h-90v-700h440v83h-350v617zM680 -72v577h-86v-572q0 -64 -47 -64h-17v-81h28q58 0 90 36t32 104zM577 682q0 -27 17 -43.5t43 -16.5q27 0 44.5 16.5t17.5 43.5q0 25 -18 42t-44 17t-43 -17t-17 -42z" />
    <glyph glyph-name="uni1E3A" unicode="&#x1e3a;" horiz-adv-x="559" 
d="M177 700h-90v-700h440v83h-350v617zM463 -142v72h-313v-72h313z" />
    <glyph glyph-name="Lslash" unicode="&#x141;" horiz-adv-x="602" 
d="M219 307v-224h351v-83h-441v285l-95 -29v80l95 29v335h90v-313l212 65v-80z" />
    <glyph glyph-name="M" unicode="M" horiz-adv-x="833" 
d="M418 356l246 345h82v-701h-89v460q0 83 6 104l-3 1q-4 -10 -19.5 -35.5t-34.5 -52.5l-180 -250h-17l-180 247q-50 71 -56 87l-3 -1q6 -21 6 -103v-457h-89v701h83z" />
    <glyph glyph-name="uni1E40" unicode="&#x1e40;" horiz-adv-x="833" 
d="M418 356l-248 345h-83v-701h89v457q0 82 -6 103l3 1q6 -16 56 -87l180 -247h17l180 250q19 27 34.5 52.5t19.5 35.5l3 -1q-6 -21 -6 -104v-460h89v701h-82zM357 877q0 -27 17 -43.5t43 -16.5q27 0 44.5 16.5t17.5 43.5q0 25 -18 42t-44 17t-43 -17t-17 -42z" />
    <glyph glyph-name="uni1E42" unicode="&#x1e42;" horiz-adv-x="833" 
d="M418 356l-248 345h-83v-701h89v457q0 82 -6 103l3 1q6 -16 56 -87l180 -247h17l180 250q19 27 34.5 52.5t19.5 35.5l3 -1q-6 -21 -6 -104v-460h89v701h-82zM356 -122q0 -26 17 -42.5t43 -16.5q27 0 44.5 16.5t17.5 42.5t-18 43t-44 17t-43 -17t-17 -43z" />
    <glyph glyph-name="N" unicode="N" horiz-adv-x="750" 
d="M573 700h90v-700h-81l-353 474q-49 68 -56 86l-3 -1q6 -21 6 -103v-456h-89v700h79l354 -474q20 -27 36 -51.5t20 -34.5l3 1q-6 21 -6 103v456z" />
    <glyph glyph-name="uni01CA" unicode="&#x1ca;" horiz-adv-x="1241" 
d="M573 700v-456q0 -82 6 -103l-3 -1q-4 10 -20 34.5t-36 51.5l-354 474h-79v-700h89v456q0 82 -6 103l3 1q7 -18 56 -86l353 -474h81v700h-90zM733 132q29 -64 82 -102.5t129 -38.5q63 0 112 26t76.5 77t27.5 123v483h-90v-478q0 -73 -34.5 -110t-94.5 -37
q-49 0 -83.5 27.5t-51.5 71.5z" />
    <glyph glyph-name="Nacute" unicode="&#x143;" horiz-adv-x="750" 
d="M573 700v-456q0 -82 6 -103l-3 -1q-4 10 -20 34.5t-36 51.5l-354 474h-79v-700h89v456q0 82 -6 103l3 1q7 -18 56 -86l353 -474h81v700h-90zM508 933h-97l-97 -136h85z" />
    <glyph glyph-name="Ncaron" unicode="&#x147;" horiz-adv-x="750" 
d="M573 700v-456q0 -82 6 -103l-3 -1q-4 10 -20 34.5t-36 51.5l-354 474h-79v-700h89v456q0 82 -6 103l3 1q7 -18 56 -86l353 -474h81v700h-90zM338 797h77l132 136h-98q-20 -21 -43 -47.5t-28 -34.5h-3q-3 8 -26.5 34.5t-43.5 47.5h-99z" />
    <glyph glyph-name="uni0145" unicode="&#x145;" horiz-adv-x="750" 
d="M573 700v-456q0 -82 6 -103l-3 -1q-4 10 -20 34.5t-36 51.5l-354 474h-79v-700h89v456q0 82 -6 103l3 1q7 -18 56 -86l353 -474h81v700h-90zM433 -115q0 22 -17 36.5t-43 14.5q-25 0 -41.5 -14t-16.5 -36q0 -17 11.5 -29.5t31.5 -16.5l-42 -61l46 -27l50 77q21 31 21 56z
" />
    <glyph glyph-name="uni1E44" unicode="&#x1e44;" horiz-adv-x="750" 
d="M573 700v-456q0 -82 6 -103l-3 -1q-4 10 -20 34.5t-36 51.5l-354 474h-79v-700h89v456q0 82 -6 103l3 1q7 -18 56 -86l353 -474h81v700h-90zM317 877q0 -27 17 -43.5t43 -16.5q27 0 44.5 16.5t17.5 43.5q0 25 -18 42t-44 17t-43 -17t-17 -42z" />
    <glyph glyph-name="uni1E46" unicode="&#x1e46;" horiz-adv-x="750" 
d="M573 700v-456q0 -82 6 -103l-3 -1q-4 10 -20 34.5t-36 51.5l-354 474h-79v-700h89v456q0 82 -6 103l3 1q7 -18 56 -86l353 -474h81v700h-90zM313 -122q0 -26 17 -42.5t43 -16.5q27 0 44.5 16.5t17.5 42.5t-18 43t-44 17t-43 -17t-17 -43z" />
    <glyph glyph-name="Eng" unicode="&#x14a;" horiz-adv-x="727" 
d="M528.5 676q55.5 -33 87 -95.5t31.5 -148.5v-461q0 -70 -40.5 -110t-104.5 -40q-73 0 -116 51l50 63q26 -29 62 -29q26 0 42.5 17.5t16.5 50.5v443q0 101 -48.5 154t-126.5 53q-59 0 -106 -25.5t-73.5 -73t-26.5 -110.5v-415h-89v700h89v-114q36 58 94 90.5t131 32.5
q72 0 127.5 -33z" />
    <glyph glyph-name="uni01CB" unicode="&#x1cb;" horiz-adv-x="947" 
d="M573 700v-456q0 -82 6 -103l-3 -1q-4 10 -20 34.5t-36 51.5l-354 474h-79v-700h89v456q0 82 -6 103l3 1q7 -18 56 -86l353 -474h81v700h-90zM871 -72v577h-86v-572q0 -64 -47 -64h-17v-81h28q58 0 90 36t32 104zM768 682q0 -27 17 -43.5t43 -16.5q27 0 44.5 16.5
t17.5 43.5q0 25 -18 42t-44 17t-43 -17t-17 -42z" />
    <glyph glyph-name="uni1E48" unicode="&#x1e48;" horiz-adv-x="750" 
d="M573 700v-456q0 -82 6 -103l-3 -1q-4 10 -20 34.5t-36 51.5l-354 474h-79v-700h89v456q0 82 -6 103l3 1q7 -18 56 -86l353 -474h81v700h-90zM530 -142v72h-313v-72h313z" />
    <glyph glyph-name="Ntilde" unicode="&#xd1;" horiz-adv-x="750" 
d="M573 700v-456q0 -82 6 -103l-3 -1q-4 10 -20 34.5t-36 51.5l-354 474h-79v-700h89v456q0 82 -6 103l3 1q7 -18 56 -86l353 -474h81v700h-90zM359 836q22 -17 40 -26.5t44 -9.5q41 0 70.5 30.5t29.5 91.5h-73q0 -52 -30 -52q-9 0 -17 5t-22 16q-19 17 -38 27t-46 10
q-41 0 -70.5 -31t-29.5 -92h73q0 52 31 52q9 0 17 -5t21 -16z" />
    <glyph glyph-name="O" unicode="O" horiz-adv-x="809" 
d="M222.5 35.5q-80.5 45.5 -125 127t-44.5 187.5t44.5 187.5t125 127t182.5 45.5t182 -45.5t124.5 -127t44.5 -187.5t-44.5 -187.5t-124.5 -127t-182 -45.5t-182.5 45.5zM537.5 108.5q58.5 33.5 91.5 95.5t33 146t-33 146t-91.5 95.5t-132.5 33.5t-132.5 -33.5t-92 -95.5
t-33.5 -146t33.5 -146t92 -95.5t132.5 -33.5t132.5 33.5z" />
    <glyph glyph-name="Oacute" unicode="&#xd3;" horiz-adv-x="809" 
d="M53 350q0 -106 44.5 -187.5t125 -127t182.5 -45.5t182 45.5t124.5 127t44.5 187.5t-44.5 187.5t-124.5 127t-182 45.5t-182.5 -45.5t-125 -127t-44.5 -187.5zM662 350q0 -84 -33 -146t-91.5 -95.5t-132.5 -33.5t-132.5 33.5t-92 95.5t-33.5 146t33.5 146t92 95.5
t132.5 33.5t132.5 -33.5t91.5 -95.5t33 -146zM536 933h-97l-97 -136h85z" />
    <glyph glyph-name="Obreve" unicode="&#x14e;" horiz-adv-x="809" 
d="M53 350q0 -106 44.5 -187.5t125 -127t182.5 -45.5t182 45.5t124.5 127t44.5 187.5t-44.5 187.5t-124.5 127t-182 45.5t-182.5 -45.5t-125 -127t-44.5 -187.5zM662 350q0 -84 -33 -146t-91.5 -95.5t-132.5 -33.5t-132.5 33.5t-92 95.5t-33.5 146t33.5 146t92 95.5
t132.5 33.5t132.5 -33.5t91.5 -95.5t33 -146zM248 933q2 -65 46 -102.5t111 -37.5t111 37.5t46 102.5h-77q-1 -36 -22.5 -55t-57.5 -19t-57 18.5t-22 55.5h-78z" />
    <glyph glyph-name="uni01D1" unicode="&#x1d1;" horiz-adv-x="809" 
d="M53 350q0 -106 44.5 -187.5t125 -127t182.5 -45.5t182 45.5t124.5 127t44.5 187.5t-44.5 187.5t-124.5 127t-182 45.5t-182.5 -45.5t-125 -127t-44.5 -187.5zM662 350q0 -84 -33 -146t-91.5 -95.5t-132.5 -33.5t-132.5 33.5t-92 95.5t-33.5 146t33.5 146t92 95.5
t132.5 33.5t132.5 -33.5t91.5 -95.5t33 -146zM367 797h77l132 136h-98q-20 -21 -43 -47.5t-28 -34.5h-3q-3 8 -26.5 34.5t-43.5 47.5h-99z" />
    <glyph glyph-name="Ocircumflex" unicode="&#xd4;" horiz-adv-x="809" 
d="M53 350q0 -106 44.5 -187.5t125 -127t182.5 -45.5t182 45.5t124.5 127t44.5 187.5t-44.5 187.5t-124.5 127t-182 45.5t-182.5 -45.5t-125 -127t-44.5 -187.5zM662 350q0 -84 -33 -146t-91.5 -95.5t-132.5 -33.5t-132.5 33.5t-92 95.5t-33.5 146t33.5 146t92 95.5
t132.5 33.5t132.5 -33.5t91.5 -95.5t33 -146zM235 797h98q20 21 43 47.5t27 34.5h3q4 -8 27.5 -34.5t43.5 -47.5h98l-132 136h-76z" />
    <glyph glyph-name="uni1ED0" unicode="&#x1ed0;" horiz-adv-x="809" 
d="M53 350q0 -106 44.5 -187.5t125 -127t182.5 -45.5t182 45.5t124.5 127t44.5 187.5t-44.5 187.5t-124.5 127t-182 45.5t-182.5 -45.5t-125 -127t-44.5 -187.5zM662 350q0 -84 -33 -146t-91.5 -95.5t-132.5 -33.5t-132.5 33.5t-92 95.5t-33.5 146t33.5 146t92 95.5
t132.5 33.5t132.5 -33.5t91.5 -95.5t33 -146zM235 783h99q20 21 42.5 47.5t27.5 34.5h3q3 -7 27 -34t44 -48h98l-132 136h-77zM679 1000h-95l-64 -113h81z" />
    <glyph glyph-name="uni1ED8" unicode="&#x1ed8;" horiz-adv-x="809" 
d="M53 350q0 -106 44.5 -187.5t125 -127t182.5 -45.5t182 45.5t124.5 127t44.5 187.5t-44.5 187.5t-124.5 127t-182 45.5t-182.5 -45.5t-125 -127t-44.5 -187.5zM662 350q0 -84 -33 -146t-91.5 -95.5t-132.5 -33.5t-132.5 33.5t-92 95.5t-33.5 146t33.5 146t92 95.5
t132.5 33.5t132.5 -33.5t91.5 -95.5t33 -146zM235 797h98q20 21 43 47.5t27 34.5h3q4 -8 27.5 -34.5t43.5 -47.5h98l-132 136h-76zM344 -122q0 -26 17 -42.5t43 -16.5q27 0 44.5 16.5t17.5 42.5t-18 43t-44 17t-43 -17t-17 -43z" />
    <glyph glyph-name="uni1ED2" unicode="&#x1ed2;" horiz-adv-x="809" 
d="M53 350q0 -106 44.5 -187.5t125 -127t182.5 -45.5t182 45.5t124.5 127t44.5 187.5t-44.5 187.5t-124.5 127t-182 45.5t-182.5 -45.5t-125 -127t-44.5 -187.5zM662 350q0 -84 -33 -146t-91.5 -95.5t-132.5 -33.5t-132.5 33.5t-92 95.5t-33.5 146t33.5 146t92 95.5
t132.5 33.5t132.5 -33.5t91.5 -95.5t33 -146zM235 783h99q20 21 42.5 47.5t27.5 34.5h3q3 -7 27 -34t44 -48h98l-132 136h-77zM619 887l-65 113h-94l78 -113h81z" />
    <glyph glyph-name="uni1ED4" unicode="&#x1ed4;" horiz-adv-x="809" 
d="M53 350q0 -106 44.5 -187.5t125 -127t182.5 -45.5t182 45.5t124.5 127t44.5 187.5t-44.5 187.5t-124.5 127t-182 45.5t-182.5 -45.5t-125 -127t-44.5 -187.5zM662 350q0 -84 -33 -146t-91.5 -95.5t-132.5 -33.5t-132.5 33.5t-92 95.5t-33.5 146t33.5 146t92 95.5
t132.5 33.5t132.5 -33.5t91.5 -95.5t33 -146zM234 782h99q20 21 42.5 47.5t27.5 34.5h3q3 -7 27 -34t44 -48h98l-132 136h-77zM507 893h74q37 43 37 82q0 33 -26.5 56t-69.5 23q-28 0 -53 -11.5t-41 -33.5l45 -45q9 10 20.5 16.5t22.5 6.5q13 0 20.5 -7t7.5 -18
q0 -22 -37 -69z" />
    <glyph glyph-name="uni1ED6" unicode="&#x1ed6;" horiz-adv-x="809" 
d="M53 350q0 -106 44.5 -187.5t125 -127t182.5 -45.5t182 45.5t124.5 127t44.5 187.5t-44.5 187.5t-124.5 127t-182 45.5t-182.5 -45.5t-125 -127t-44.5 -187.5zM662 350q0 -84 -33 -146t-91.5 -95.5t-132.5 -33.5t-132.5 33.5t-92 95.5t-33.5 146t33.5 146t92 95.5
t132.5 33.5t132.5 -33.5t91.5 -95.5t33 -146zM387 985q22 -13 40 -20t44 -7q39 0 68.5 27.5t29.5 78.5h-73q0 -19 -8.5 -29t-21.5 -10q-9 0 -17.5 4t-21.5 12q-19 13 -37.5 20.5t-45.5 7.5q-40 0 -69 -28t-29 -79h72q0 20 8.5 29.5t22.5 9.5q9 0 17 -4t21 -12zM235 782h99
q19 21 42 47.5t28 34.5h3q5 -11 70 -82h99l-132 136h-77z" />
    <glyph glyph-name="Odieresis" unicode="&#xd6;" horiz-adv-x="809" 
d="M53 350q0 -106 44.5 -187.5t125 -127t182.5 -45.5t182 45.5t124.5 127t44.5 187.5t-44.5 187.5t-124.5 127t-182 45.5t-182.5 -45.5t-125 -127t-44.5 -187.5zM662 350q0 -84 -33 -146t-91.5 -95.5t-132.5 -33.5t-132.5 33.5t-92 95.5t-33.5 146t33.5 146t92 95.5
t132.5 33.5t132.5 -33.5t91.5 -95.5t33 -146zM237 872q0 -25 16 -40t40 -15t40 15t16 40t-16 40t-40 15t-40 -15t-16 -40zM461 872q0 -25 16 -40t40 -15t40 15t16 40t-16 40t-40 15t-40 -15t-16 -40z" />
    <glyph glyph-name="uni1ECC" unicode="&#x1ecc;" horiz-adv-x="809" 
d="M53 350q0 -106 44.5 -187.5t125 -127t182.5 -45.5t182 45.5t124.5 127t44.5 187.5t-44.5 187.5t-124.5 127t-182 45.5t-182.5 -45.5t-125 -127t-44.5 -187.5zM662 350q0 -84 -33 -146t-91.5 -95.5t-132.5 -33.5t-132.5 33.5t-92 95.5t-33.5 146t33.5 146t92 95.5
t132.5 33.5t132.5 -33.5t91.5 -95.5t33 -146zM344 -122q0 -26 17 -42.5t43 -16.5q27 0 44.5 16.5t17.5 42.5t-18 43t-44 17t-43 -17t-17 -43z" />
    <glyph glyph-name="Ograve" unicode="&#xd2;" horiz-adv-x="809" 
d="M53 350q0 -106 44.5 -187.5t125 -127t182.5 -45.5t182 45.5t124.5 127t44.5 187.5t-44.5 187.5t-124.5 127t-182 45.5t-182.5 -45.5t-125 -127t-44.5 -187.5zM662 350q0 -84 -33 -146t-91.5 -95.5t-132.5 -33.5t-132.5 33.5t-92 95.5t-33.5 146t33.5 146t92 95.5
t132.5 33.5t132.5 -33.5t91.5 -95.5t33 -146zM467 797l-97 136h-97l109 -136h85z" />
    <glyph glyph-name="uni1ECE" unicode="&#x1ece;" horiz-adv-x="809" 
d="M53 350q0 -106 44.5 -187.5t125 -127t182.5 -45.5t182 45.5t124.5 127t44.5 187.5t-44.5 187.5t-124.5 127t-182 45.5t-182.5 -45.5t-125 -127t-44.5 -187.5zM662 350q0 -84 -33 -146t-91.5 -95.5t-132.5 -33.5t-132.5 33.5t-92 95.5t-33.5 146t33.5 146t92 95.5
t132.5 33.5t132.5 -33.5t91.5 -95.5t33 -146zM388 769h74q37 43 37 82q0 33 -26.5 56t-69.5 23q-28 0 -52.5 -11.5t-41.5 -33.5l45 -45q10 10 21.5 16.5t21.5 6.5q13 0 20.5 -7t7.5 -18q0 -22 -37 -69z" />
    <glyph glyph-name="Ohorn" unicode="&#x1a0;" horiz-adv-x="832" 
d="M790 755q0 -65 -37 -99.5t-98 -34.5h-30q62 -46 96 -116.5t34 -156.5q0 -105 -44.5 -186t-124 -126.5t-181.5 -45.5t-182.5 45.5t-125 127t-44.5 187.5t44.5 187.5t125 127t182.5 45.5q49 0 89 -10h148q60 0 60 65v28h88v-38zM629 496q-33 62 -91.5 95.5t-132.5 33.5
t-132.5 -33.5t-92 -95.5t-33.5 -146t33.5 -146t92 -95.5t132.5 -33.5t132.5 33.5t91.5 95.5t33 146t-33 146z" />
    <glyph glyph-name="uni1EDA" unicode="&#x1eda;" horiz-adv-x="832" 
d="M790 755v38h-88v-28q0 -65 -60 -65h-148q-40 10 -89 10q-102 0 -182.5 -45.5t-125 -127t-44.5 -187.5t44.5 -187.5t125 -127t182.5 -45.5t181.5 45.5t124 126.5t44.5 186q0 86 -34 156.5t-96 116.5h30q61 0 98 34.5t37 99.5zM405 625q74 0 132.5 -33.5t91.5 -95.5
t33 -146t-33 -146t-91.5 -95.5t-132.5 -33.5t-132.5 33.5t-92 95.5t-33.5 146t33.5 146t92 95.5t132.5 33.5zM536 933h-97l-97 -136h85z" />
    <glyph glyph-name="uni1EE2" unicode="&#x1ee2;" horiz-adv-x="832" 
d="M790 755v38h-88v-28q0 -65 -60 -65h-148q-40 10 -89 10q-102 0 -182.5 -45.5t-125 -127t-44.5 -187.5t44.5 -187.5t125 -127t182.5 -45.5t181.5 45.5t124 126.5t44.5 186q0 86 -34 156.5t-96 116.5h30q61 0 98 34.5t37 99.5zM405 625q74 0 132.5 -33.5t91.5 -95.5
t33 -146t-33 -146t-91.5 -95.5t-132.5 -33.5t-132.5 33.5t-92 95.5t-33.5 146t33.5 146t92 95.5t132.5 33.5zM344 -122q0 -26 17 -42.5t43 -16.5q27 0 44.5 16.5t17.5 42.5t-18 43t-44 17t-43 -17t-17 -43z" />
    <glyph glyph-name="uni1EDC" unicode="&#x1edc;" horiz-adv-x="832" 
d="M790 755v38h-88v-28q0 -65 -60 -65h-148q-40 10 -89 10q-102 0 -182.5 -45.5t-125 -127t-44.5 -187.5t44.5 -187.5t125 -127t182.5 -45.5t181.5 45.5t124 126.5t44.5 186q0 86 -34 156.5t-96 116.5h30q61 0 98 34.5t37 99.5zM405 625q74 0 132.5 -33.5t91.5 -95.5
t33 -146t-33 -146t-91.5 -95.5t-132.5 -33.5t-132.5 33.5t-92 95.5t-33.5 146t33.5 146t92 95.5t132.5 33.5zM467 797l-97 136h-97l109 -136h85z" />
    <glyph glyph-name="uni1EDE" unicode="&#x1ede;" horiz-adv-x="832" 
d="M790 755v38h-88v-28q0 -65 -60 -65h-148q-40 10 -89 10q-102 0 -182.5 -45.5t-125 -127t-44.5 -187.5t44.5 -187.5t125 -127t182.5 -45.5t181.5 45.5t124 126.5t44.5 186q0 86 -34 156.5t-96 116.5h30q61 0 98 34.5t37 99.5zM405 625q74 0 132.5 -33.5t91.5 -95.5
t33 -146t-33 -146t-91.5 -95.5t-132.5 -33.5t-132.5 33.5t-92 95.5t-33.5 146t33.5 146t92 95.5t132.5 33.5zM388 769h74q37 43 37 82q0 33 -26.5 56t-69.5 23q-28 0 -52.5 -11.5t-41.5 -33.5l45 -45q10 10 21.5 16.5t21.5 6.5q13 0 20.5 -7t7.5 -18q0 -22 -37 -69z" />
    <glyph glyph-name="uni1EE0" unicode="&#x1ee0;" horiz-adv-x="832" 
d="M790 755v38h-88v-28q0 -65 -60 -65h-148q-40 10 -89 10q-102 0 -182.5 -45.5t-125 -127t-44.5 -187.5t44.5 -187.5t125 -127t182.5 -45.5t181.5 45.5t124 126.5t44.5 186q0 86 -34 156.5t-96 116.5h30q61 0 98 34.5t37 99.5zM405 625q74 0 132.5 -33.5t91.5 -95.5
t33 -146t-33 -146t-91.5 -95.5t-132.5 -33.5t-132.5 33.5t-92 95.5t-33.5 146t33.5 146t92 95.5t132.5 33.5zM387 836q22 -17 40 -26.5t44 -9.5q41 0 70.5 30.5t29.5 91.5h-73q0 -52 -30 -52q-9 0 -17 5t-22 16q-19 17 -38 27t-46 10q-41 0 -70.5 -31t-29.5 -92h73
q0 52 31 52q9 0 17 -5t21 -16z" />
    <glyph glyph-name="Ohungarumlaut" unicode="&#x150;" horiz-adv-x="809" 
d="M53 350q0 -106 44.5 -187.5t125 -127t182.5 -45.5t182 45.5t124.5 127t44.5 187.5t-44.5 187.5t-124.5 127t-182 45.5t-182.5 -45.5t-125 -127t-44.5 -187.5zM662 350q0 -84 -33 -146t-91.5 -95.5t-132.5 -33.5t-132.5 33.5t-92 95.5t-33.5 146t33.5 146t92 95.5
t132.5 33.5t132.5 -33.5t91.5 -95.5t33 -146zM644 933h-97l-99 -136h84zM447 933h-95l-96 -136h84z" />
    <glyph glyph-name="Omacron" unicode="&#x14c;" horiz-adv-x="809" 
d="M53 350q0 -106 44.5 -187.5t125 -127t182.5 -45.5t182 45.5t124.5 127t44.5 187.5t-44.5 187.5t-124.5 127t-182 45.5t-182.5 -45.5t-125 -127t-44.5 -187.5zM662 350q0 -84 -33 -146t-91.5 -95.5t-132.5 -33.5t-132.5 33.5t-92 95.5t-33.5 146t33.5 146t92 95.5
t132.5 33.5t132.5 -33.5t91.5 -95.5t33 -146zM561 831v72h-313v-72h313z" />
    <glyph glyph-name="Oslash" unicode="&#xd8;" horiz-adv-x="809" 
d="M756 669l-77 -82q37 -47 57 -107t20 -130q0 -106 -44.5 -187.5t-124.5 -127t-182 -45.5q-129 0 -219 70l-76 -81l-57 52l77 83q-37 46 -57 106t-20 130q0 106 44.5 187.5t125 127t182.5 45.5q127 0 219 -70l76 82zM194 181l368 394q-64 50 -157 50q-74 0 -132.5 -33.5
t-92 -95.5t-33.5 -146q0 -98 47 -169zM615 519l-368 -394q67 -50 158 -50q74 0 132.5 33.5t91.5 95.5t33 146q0 99 -47 169z" />
    <glyph glyph-name="Otilde" unicode="&#xd5;" horiz-adv-x="809" 
d="M53 350q0 -106 44.5 -187.5t125 -127t182.5 -45.5t182 45.5t124.5 127t44.5 187.5t-44.5 187.5t-124.5 127t-182 45.5t-182.5 -45.5t-125 -127t-44.5 -187.5zM662 350q0 -84 -33 -146t-91.5 -95.5t-132.5 -33.5t-132.5 33.5t-92 95.5t-33.5 146t33.5 146t92 95.5
t132.5 33.5t132.5 -33.5t91.5 -95.5t33 -146zM387 836q22 -17 40 -26.5t44 -9.5q41 0 70.5 30.5t29.5 91.5h-73q0 -52 -30 -52q-9 0 -17 5t-22 16q-19 17 -38 27t-46 10q-41 0 -70.5 -31t-29.5 -92h73q0 52 31 52q9 0 17 -5t21 -16z" />
    <glyph glyph-name="OE" unicode="&#x152;" horiz-adv-x="1188" 
d="M1133 618h-383v-223h343v-81h-343v-232h383v-82h-473v120q-44 -62 -111 -96t-149 -34q-101 0 -179.5 45.5t-123 127t-44.5 187.5t44.5 187.5t123 127t179.5 45.5q82 0 149 -34t111 -96v120h473v-82zM537.5 108.5q58.5 33.5 91.5 95.5t33 146t-33 146t-91.5 95.5
t-132.5 33.5t-132.5 -33.5t-92 -95.5t-33.5 -146t33.5 -146t92 -95.5t132.5 -33.5t132.5 33.5z" />
    <glyph glyph-name="P" unicode="P" horiz-adv-x="639" 
d="M527.5 640q68.5 -60 68.5 -165t-68.5 -165t-187.5 -60h-164v-250h-89v700h252q120 0 188.5 -60zM331 331q82 0 126.5 36.5t44.5 107.5q0 70 -44.5 106.5t-126.5 36.5h-155v-287h155z" />
    <glyph glyph-name="Thorn" unicode="&#xde;" horiz-adv-x="636" 
d="M326 575q123 0 192 -59.5t69 -165.5t-68.5 -165.5t-191.5 -59.5h-151v-125h-89v700h89v-125h150zM322 206q82 0 126.5 36.5t44.5 107.5q0 70 -44.5 106.5t-126.5 36.5h-146v-287h146z" />
    <glyph glyph-name="Q" unicode="Q" horiz-adv-x="809" 
d="M729 201q-27 -68 -76 -116l95 -120l-65 -51l-97 121q-81 -45 -181 -45q-102 0 -182.5 45.5t-125 127t-44.5 187.5t44.5 187.5t125 127t182.5 45.5t182 -45.5t124.5 -127t44.5 -187.5q0 -81 -27 -149zM531 105l-84 104l66 51l83 -104q32 36 49 85.5t17 108.5q0 84 -33 146
t-91.5 95.5t-132.5 33.5t-132.5 -33.5t-92 -95.5t-33.5 -146t33.5 -146t92 -95.5t132.5 -33.5q71 0 126 30z" />
    <glyph glyph-name="R" unicode="R" horiz-adv-x="669" 
d="M526 0l-207 269h-143v-269h-89v700h270q113 0 178 -57.5t65 -159.5q0 -83 -49 -138t-133 -71l217 -274h-109zM176 618v-270h174q76 0 116 35t40 100q0 66 -40 100.5t-116 34.5h-174z" />
    <glyph glyph-name="Racute" unicode="&#x154;" horiz-adv-x="669" 
d="M526 0h109l-217 274q84 16 133 71t49 138q0 102 -65 159.5t-178 57.5h-270v-700h89v269h143zM176 618h174q76 0 116 -34.5t40 -100.5q0 -65 -40 -100t-116 -35h-174v270zM447 933h-97l-97 -136h85z" />
    <glyph glyph-name="Rcaron" unicode="&#x158;" horiz-adv-x="669" 
d="M526 0h109l-217 274q84 16 133 71t49 138q0 102 -65 159.5t-178 57.5h-270v-700h89v269h143zM176 618h174q76 0 116 -34.5t40 -100.5q0 -65 -40 -100t-116 -35h-174v270zM277 797h77l132 136h-98q-20 -21 -43 -47.5t-28 -34.5h-3q-3 8 -26.5 34.5t-43.5 47.5h-99z" />
    <glyph glyph-name="uni0156" unicode="&#x156;" horiz-adv-x="669" 
d="M526 0h109l-217 274q84 16 133 71t49 138q0 102 -65 159.5t-178 57.5h-270v-700h89v269h143zM176 618h174q76 0 116 -34.5t40 -100.5q0 -65 -40 -100t-116 -35h-174v270zM401 -115q0 22 -17 36.5t-43 14.5q-25 0 -41.5 -14t-16.5 -36q0 -17 11.5 -29.5t31.5 -16.5
l-42 -61l46 -27l50 77q21 31 21 56z" />
    <glyph glyph-name="uni1E58" unicode="&#x1e58;" horiz-adv-x="669" 
d="M526 0h109l-217 274q84 16 133 71t49 138q0 102 -65 159.5t-178 57.5h-270v-700h89v269h143zM176 618h174q76 0 116 -34.5t40 -100.5q0 -65 -40 -100t-116 -35h-174v270zM255 877q0 -27 17 -43.5t43 -16.5q27 0 44.5 16.5t17.5 43.5q0 25 -18 42t-44 17t-43 -17t-17 -42z
" />
    <glyph glyph-name="uni1E5A" unicode="&#x1e5a;" horiz-adv-x="669" 
d="M526 0h109l-217 274q84 16 133 71t49 138q0 102 -65 159.5t-178 57.5h-270v-700h89v269h143zM176 618h174q76 0 116 -34.5t40 -100.5q0 -65 -40 -100t-116 -35h-174v270zM281 -122q0 -26 17 -42.5t43 -16.5q27 0 44.5 16.5t17.5 42.5t-18 43t-44 17t-43 -17t-17 -43z" />
    <glyph glyph-name="uni1E5C" unicode="&#x1e5c;" horiz-adv-x="669" 
d="M526 0h109l-217 274q84 16 133 71t49 138q0 102 -65 159.5t-178 57.5h-270v-700h89v269h143zM176 618h174q76 0 116 -34.5t40 -100.5q0 -65 -40 -100t-116 -35h-174v270zM472 831v72h-313v-72h313zM281 -122q0 -26 17 -42.5t43 -16.5q27 0 44.5 16.5t17.5 42.5t-18 43
t-44 17t-43 -17t-17 -43z" />
    <glyph glyph-name="uni1E5E" unicode="&#x1e5e;" horiz-adv-x="669" 
d="M526 0h109l-217 274q84 16 133 71t49 138q0 102 -65 159.5t-178 57.5h-270v-700h89v269h143zM176 618h174q76 0 116 -34.5t40 -100.5q0 -65 -40 -100t-116 -35h-174v270zM498 -142v72h-313v-72h313z" />
    <glyph glyph-name="S" unicode="S" horiz-adv-x="626" 
d="M146.5 35.5q-72.5 45.5 -102.5 121.5l77 40q20 -54 73 -89t125 -35q78 0 124.5 29t46.5 78q0 43 -36.5 71.5t-120.5 50.5l-91 24q-88 24 -134 72t-46 118q0 56 31.5 100.5t88 69t129.5 24.5q93 0 157.5 -39t97.5 -113l-77 -37q-48 106 -177 106q-70 0 -113 -28.5
t-43 -75.5q0 -45 30.5 -70t96.5 -43l91 -24q208 -56 208 -198q0 -59 -32 -104t-91.5 -69.5t-139.5 -24.5q-100 0 -172.5 45.5z" />
    <glyph glyph-name="Sacute" unicode="&#x15a;" horiz-adv-x="626" 
d="M44 157q30 -76 102.5 -121.5t172.5 -45.5q80 0 139.5 24.5t91.5 69.5t32 104q0 142 -208 198l-91 24q-66 18 -96.5 43t-30.5 70q0 47 43 75.5t113 28.5q129 0 177 -106l77 37q-33 74 -97.5 113t-157.5 39q-73 0 -129.5 -24.5t-88 -69t-31.5 -100.5q0 -70 46 -118t134 -72
l91 -24q84 -22 120.5 -50.5t36.5 -71.5q0 -49 -46.5 -78t-124.5 -29q-72 0 -125 35t-73 89zM445 933h-97l-97 -136h85z" />
    <glyph glyph-name="Scaron" unicode="&#x160;" horiz-adv-x="626" 
d="M44 157q30 -76 102.5 -121.5t172.5 -45.5q80 0 139.5 24.5t91.5 69.5t32 104q0 142 -208 198l-91 24q-66 18 -96.5 43t-30.5 70q0 47 43 75.5t113 28.5q129 0 177 -106l77 37q-33 74 -97.5 113t-157.5 39q-73 0 -129.5 -24.5t-88 -69t-31.5 -100.5q0 -70 46 -118t134 -72
l91 -24q84 -22 120.5 -50.5t36.5 -71.5q0 -49 -46.5 -78t-124.5 -29q-72 0 -125 35t-73 89zM275 797h77l132 136h-98q-20 -21 -43 -47.5t-28 -34.5h-3q-3 8 -26.5 34.5t-43.5 47.5h-99z" />
    <glyph glyph-name="Scedilla" unicode="&#x15e;" horiz-adv-x="626" 
d="M524 55q-58 -53 -158 -63l17 -15q38 -34 38 -75q0 -32 -25 -53t-70 -21h-73v75h56q14 0 22.5 7t8.5 18q0 18 -19 38l-24 25q-92 5 -158.5 49.5t-94.5 116.5l77 40q20 -54 73 -89t125 -35q78 0 124.5 29t46.5 78q0 43 -36.5 71.5t-120.5 50.5l-91 24q-88 24 -134 72
t-46 118q0 56 31.5 100.5t88 69t129.5 24.5q93 0 157.5 -39t97.5 -113l-77 -37q-48 106 -177 106q-70 0 -113 -28.5t-43 -75.5q0 -45 30.5 -70t96.5 -43l91 -24q208 -56 208 -198q0 -80 -58 -133z" />
    <glyph glyph-name="Scircumflex" unicode="&#x15c;" horiz-adv-x="626" 
d="M44 157q30 -76 102.5 -121.5t172.5 -45.5q80 0 139.5 24.5t91.5 69.5t32 104q0 142 -208 198l-91 24q-66 18 -96.5 43t-30.5 70q0 47 43 75.5t113 28.5q129 0 177 -106l77 37q-33 74 -97.5 113t-157.5 39q-73 0 -129.5 -24.5t-88 -69t-31.5 -100.5q0 -70 46 -118t134 -72
l91 -24q84 -22 120.5 -50.5t36.5 -71.5q0 -49 -46.5 -78t-124.5 -29q-72 0 -125 35t-73 89zM144 797h98q20 21 43 47.5t27 34.5h3q4 -8 27.5 -34.5t43.5 -47.5h98l-132 136h-76z" />
    <glyph glyph-name="uni0218" unicode="&#x218;" horiz-adv-x="626" 
d="M44 157q30 -76 102.5 -121.5t172.5 -45.5q80 0 139.5 24.5t91.5 69.5t32 104q0 142 -208 198l-91 24q-66 18 -96.5 43t-30.5 70q0 47 43 75.5t113 28.5q129 0 177 -106l77 37q-33 74 -97.5 113t-157.5 39q-73 0 -129.5 -24.5t-88 -69t-31.5 -100.5q0 -70 46 -118t134 -72
l91 -24q84 -22 120.5 -50.5t36.5 -71.5q0 -49 -46.5 -78t-124.5 -29q-72 0 -125 35t-73 89zM379 -115q0 22 -17 36.5t-43 14.5q-25 0 -41.5 -14t-16.5 -36q0 -17 11.5 -29.5t31.5 -16.5l-42 -61l46 -27l50 77q21 31 21 56z" />
    <glyph glyph-name="uni1E62" unicode="&#x1e62;" horiz-adv-x="626" 
d="M44 157q30 -76 102.5 -121.5t172.5 -45.5q80 0 139.5 24.5t91.5 69.5t32 104q0 142 -208 198l-91 24q-66 18 -96.5 43t-30.5 70q0 47 43 75.5t113 28.5q129 0 177 -106l77 37q-33 74 -97.5 113t-157.5 39q-73 0 -129.5 -24.5t-88 -69t-31.5 -100.5q0 -70 46 -118t134 -72
l91 -24q84 -22 120.5 -50.5t36.5 -71.5q0 -49 -46.5 -78t-124.5 -29q-72 0 -125 35t-73 89zM259 -122q0 -26 17 -42.5t43 -16.5q27 0 44.5 16.5t17.5 42.5t-18 43t-44 17t-43 -17t-17 -43z" />
    <glyph glyph-name="uni1E9E" unicode="&#x1e9e;" horiz-adv-x="728" 
d="M466 393q60 -4 109 -28.5t78 -68t29 -100.5q0 -66 -31 -112.5t-84.5 -70t-120.5 -23.5q-57 0 -98.5 14.5t-74.5 43.5l44 73q52 -49 127 -49q66 0 105.5 34.5t39.5 91.5t-45.5 90.5t-124.5 33.5h-69v61l165 176q-22 31 -63 49.5t-98 18.5q-85 0 -134 -48t-49 -130v-449
h-90v454q0 74 32 131.5t94.5 90.5t149.5 33q98 0 165.5 -39.5t106.5 -103.5z" />
    <glyph glyph-name="uni018F" unicode="&#x18f;" horiz-adv-x="775" 
d="M549.5 665.5q80.5 -44.5 126.5 -126.5t46 -189t-45 -188.5t-123.5 -126t-174.5 -44.5q-99 0 -173.5 42.5t-115 120.5t-40.5 182q0 22 1 33h577q-4 79 -38.5 137t-92 89t-128.5 31q-73 0 -132 -35.5t-95 -102.5l-69 54q46 79 124 123.5t171 44.5q101 0 181.5 -44.5z
M539 132q67 58 84 158h-479q12 -102 75 -159t160 -57q93 0 160 58z" />
    <glyph glyph-name="T" unicode="T" horiz-adv-x="605" 
d="M32 700h541v-83h-226v-617h-89v617h-226v83z" />
    <glyph glyph-name="Tbar" unicode="&#x166;" horiz-adv-x="605" 
d="M573 700v-83h-226v-249h132v-77h-132v-291h-89v291h-132v77h132v249h-226v83h541z" />
    <glyph glyph-name="Tcaron" unicode="&#x164;" horiz-adv-x="605" 
d="M32 700v-83h226v-617h89v617h226v83h-541zM266 797h77l132 136h-98q-20 -21 -43 -47.5t-28 -34.5h-3q-3 8 -26.5 34.5t-43.5 47.5h-99z" />
    <glyph glyph-name="uni0162" unicode="&#x162;" horiz-adv-x="605" 
d="M347 617v-617h-15l25 -23q39 -35 39 -75q0 -32 -25.5 -53t-70.5 -21h-73v75h56q15 0 23 7t8 18q0 18 -19 38l-33 34h-4v617h-226v83h541v-83h-226z" />
    <glyph glyph-name="uni021A" unicode="&#x21a;" horiz-adv-x="605" 
d="M32 700v-83h226v-617h89v617h226v83h-541zM362 -115q0 22 -17 36.5t-43 14.5q-25 0 -41.5 -14t-16.5 -36q0 -17 11.5 -29.5t31.5 -16.5l-42 -61l46 -27l50 77q21 31 21 56z" />
    <glyph glyph-name="uni1E6C" unicode="&#x1e6c;" horiz-adv-x="605" 
d="M32 700v-83h226v-617h89v617h226v83h-541zM242 -122q0 -26 17 -42.5t43 -16.5q27 0 44.5 16.5t17.5 42.5t-18 43t-44 17t-43 -17t-17 -43z" />
    <glyph glyph-name="uni1E6E" unicode="&#x1e6e;" horiz-adv-x="605" 
d="M32 700v-83h226v-617h89v617h226v83h-541zM459 -142v72h-313v-72h313z" />
    <glyph glyph-name="U" unicode="U" horiz-adv-x="722" 
d="M642 284q0 -94 -36 -160t-99.5 -99.5t-145.5 -33.5t-145.5 33.5t-100 99.5t-36.5 160v416h91v-411q0 -106 52 -160t139 -54q86 0 138.5 54t52.5 160v411h90v-416z" />
    <glyph glyph-name="Uacute" unicode="&#xda;" horiz-adv-x="722" 
d="M642 284v416h-90v-411q0 -106 -52.5 -160t-138.5 -54q-87 0 -139 54t-52 160v411h-91v-416q0 -94 36.5 -160t100 -99.5t145.5 -33.5t145.5 33.5t99.5 99.5t36 160zM493 933h-97l-97 -136h85z" />
    <glyph glyph-name="Ubreve" unicode="&#x16c;" horiz-adv-x="722" 
d="M642 284v416h-90v-411q0 -106 -52.5 -160t-138.5 -54q-87 0 -139 54t-52 160v411h-91v-416q0 -94 36.5 -160t100 -99.5t145.5 -33.5t145.5 33.5t99.5 99.5t36 160zM204 933q2 -65 46 -102.5t111 -37.5t111 37.5t46 102.5h-77q-1 -36 -22.5 -55t-57.5 -19t-57 18.5
t-22 55.5h-78z" />
    <glyph glyph-name="uni01D3" unicode="&#x1d3;" horiz-adv-x="722" 
d="M642 284v416h-90v-411q0 -106 -52.5 -160t-138.5 -54q-87 0 -139 54t-52 160v411h-91v-416q0 -94 36.5 -160t100 -99.5t145.5 -33.5t145.5 33.5t99.5 99.5t36 160zM323 797h77l132 136h-98q-20 -21 -43 -47.5t-28 -34.5h-3q-3 8 -26.5 34.5t-43.5 47.5h-99z" />
    <glyph glyph-name="Ucircumflex" unicode="&#xdb;" horiz-adv-x="722" 
d="M642 284v416h-90v-411q0 -106 -52.5 -160t-138.5 -54q-87 0 -139 54t-52 160v411h-91v-416q0 -94 36.5 -160t100 -99.5t145.5 -33.5t145.5 33.5t99.5 99.5t36 160zM192 797h98q20 21 43 47.5t27 34.5h3q4 -8 27.5 -34.5t43.5 -47.5h98l-132 136h-76z" />
    <glyph glyph-name="Udieresis" unicode="&#xdc;" horiz-adv-x="722" 
d="M642 284v416h-90v-411q0 -106 -52.5 -160t-138.5 -54q-87 0 -139 54t-52 160v411h-91v-416q0 -94 36.5 -160t100 -99.5t145.5 -33.5t145.5 33.5t99.5 99.5t36 160zM193 872q0 -25 16 -40t40 -15t40 15t16 40t-16 40t-40 15t-40 -15t-16 -40zM417 872q0 -25 16 -40t40 -15
t40 15t16 40t-16 40t-40 15t-40 -15t-16 -40z" />
    <glyph glyph-name="uni01D7" unicode="&#x1d7;" horiz-adv-x="722" 
d="M642 284v416h-90v-411q0 -106 -52.5 -160t-138.5 -54q-87 0 -139 54t-52 160v411h-91v-416q0 -94 36.5 -160t100 -99.5t145.5 -33.5t145.5 33.5t99.5 99.5t36 160zM399 956l99 136h-97l-87 -136h85zM193 852q0 -25 16 -40t40 -15t40 15t16 40t-16 40t-40 15t-40 -15
t-16 -40zM417 852q0 -25 16 -40t40 -15t40 15t16 40t-16 40t-40 15t-40 -15t-16 -40z" />
    <glyph glyph-name="uni01D9" unicode="&#x1d9;" horiz-adv-x="722" 
d="M642 284v416h-90v-411q0 -106 -52.5 -160t-138.5 -54q-87 0 -139 54t-52 160v411h-91v-416q0 -94 36.5 -160t100 -99.5t145.5 -33.5t145.5 33.5t99.5 99.5t36 160zM323 956h77l132 136h-98q-20 -21 -43 -47.5t-28 -34.5h-3q-3 8 -26.5 34.5t-43.5 47.5h-98zM417 852
q0 -25 16 -40t40 -15t40 15t16 40t-16 40t-40 15t-40 -15t-16 -40zM194 852q0 -25 15.5 -40t39.5 -15t40 15t16 40t-16 40t-40 15t-39.5 -15t-15.5 -40z" />
    <glyph glyph-name="uni01DB" unicode="&#x1db;" horiz-adv-x="722" 
d="M642 284v416h-90v-411q0 -106 -52.5 -160t-138.5 -54q-87 0 -139 54t-52 160v411h-91v-416q0 -94 36.5 -160t100 -99.5t145.5 -33.5t145.5 33.5t99.5 99.5t36 160zM419 956l-87 136h-97l99 -136h85zM193 852q0 -25 16 -40t40 -15t40 15t16 40t-16 40t-40 15t-40 -15
t-16 -40zM417 852q0 -25 16 -40t40 -15t40 15t16 40t-16 40t-40 15t-40 -15t-16 -40z" />
    <glyph glyph-name="uni01D5" unicode="&#x1d5;" horiz-adv-x="722" 
d="M642 284v416h-90v-411q0 -106 -52.5 -160t-138.5 -54q-87 0 -139 54t-52 160v411h-91v-416q0 -94 36.5 -160t100 -99.5t145.5 -33.5t145.5 33.5t99.5 99.5t36 160zM518 967v72h-313v-72h313zM193 852q0 -25 16 -40t40 -15t40 15t16 40t-16 40t-40 15t-40 -15t-16 -40z
M417 852q0 -25 16 -40t40 -15t40 15t16 40t-16 40t-40 15t-40 -15t-16 -40z" />
    <glyph glyph-name="uni1EE4" unicode="&#x1ee4;" horiz-adv-x="722" 
d="M642 284v416h-90v-411q0 -106 -52.5 -160t-138.5 -54q-87 0 -139 54t-52 160v411h-91v-416q0 -94 36.5 -160t100 -99.5t145.5 -33.5t145.5 33.5t99.5 99.5t36 160zM300 -122q0 -26 17 -42.5t43 -16.5q27 0 44.5 16.5t17.5 42.5t-18 43t-44 17t-43 -17t-17 -43z" />
    <glyph glyph-name="Ugrave" unicode="&#xd9;" horiz-adv-x="722" 
d="M642 284v416h-90v-411q0 -106 -52.5 -160t-138.5 -54q-87 0 -139 54t-52 160v411h-91v-416q0 -94 36.5 -160t100 -99.5t145.5 -33.5t145.5 33.5t99.5 99.5t36 160zM424 797l-97 136h-97l109 -136h85z" />
    <glyph glyph-name="uni1EE6" unicode="&#x1ee6;" horiz-adv-x="722" 
d="M642 284v416h-90v-411q0 -106 -52.5 -160t-138.5 -54q-87 0 -139 54t-52 160v411h-91v-416q0 -94 36.5 -160t100 -99.5t145.5 -33.5t145.5 33.5t99.5 99.5t36 160zM345 769h74q37 43 37 82q0 33 -26.5 56t-69.5 23q-28 0 -52.5 -11.5t-41.5 -33.5l45 -45q10 10 21.5 16.5
t21.5 6.5q13 0 20.5 -7t7.5 -18q0 -22 -37 -69z" />
    <glyph glyph-name="Uhorn" unicode="&#x1af;" horiz-adv-x="841" 
d="M736 793h88v-38q0 -65 -36.5 -99.5t-97.5 -34.5h-48v-337q0 -94 -36 -160t-99.5 -99.5t-145.5 -33.5t-145.5 33.5t-100 99.5t-36.5 160v416h91v-411q0 -106 52 -160t139 -54q86 0 138.5 54t52.5 160v411h124q60 0 60 65v28z" />
    <glyph glyph-name="uni1EE8" unicode="&#x1ee8;" horiz-adv-x="841" 
d="M736 793v-28q0 -65 -60 -65h-124v-411q0 -106 -52.5 -160t-138.5 -54q-87 0 -139 54t-52 160v411h-91v-416q0 -94 36.5 -160t100 -99.5t145.5 -33.5t145.5 33.5t99.5 99.5t36 160v337h48q61 0 97.5 34.5t36.5 99.5v38h-88zM493 933h-97l-97 -136h85z" />
    <glyph glyph-name="uni1EF0" unicode="&#x1ef0;" horiz-adv-x="841" 
d="M736 793v-28q0 -65 -60 -65h-124v-411q0 -106 -52.5 -160t-138.5 -54q-87 0 -139 54t-52 160v411h-91v-416q0 -94 36.5 -160t100 -99.5t145.5 -33.5t145.5 33.5t99.5 99.5t36 160v337h48q61 0 97.5 34.5t36.5 99.5v38h-88zM300 -122q0 -26 17 -42.5t43 -16.5
q27 0 44.5 16.5t17.5 42.5t-18 43t-44 17t-43 -17t-17 -43z" />
    <glyph glyph-name="uni1EEA" unicode="&#x1eea;" horiz-adv-x="841" 
d="M736 793v-28q0 -65 -60 -65h-124v-411q0 -106 -52.5 -160t-138.5 -54q-87 0 -139 54t-52 160v411h-91v-416q0 -94 36.5 -160t100 -99.5t145.5 -33.5t145.5 33.5t99.5 99.5t36 160v337h48q61 0 97.5 34.5t36.5 99.5v38h-88zM424 797l-97 136h-97l109 -136h85z" />
    <glyph glyph-name="uni1EEC" unicode="&#x1eec;" horiz-adv-x="841" 
d="M736 793v-28q0 -65 -60 -65h-124v-411q0 -106 -52.5 -160t-138.5 -54q-87 0 -139 54t-52 160v411h-91v-416q0 -94 36.5 -160t100 -99.5t145.5 -33.5t145.5 33.5t99.5 99.5t36 160v337h48q61 0 97.5 34.5t36.5 99.5v38h-88zM345 769h74q37 43 37 82q0 33 -26.5 56
t-69.5 23q-28 0 -52.5 -11.5t-41.5 -33.5l45 -45q10 10 21.5 16.5t21.5 6.5q13 0 20.5 -7t7.5 -18q0 -22 -37 -69z" />
    <glyph glyph-name="uni1EEE" unicode="&#x1eee;" horiz-adv-x="841" 
d="M736 793v-28q0 -65 -60 -65h-124v-411q0 -106 -52.5 -160t-138.5 -54q-87 0 -139 54t-52 160v411h-91v-416q0 -94 36.5 -160t100 -99.5t145.5 -33.5t145.5 33.5t99.5 99.5t36 160v337h48q61 0 97.5 34.5t36.5 99.5v38h-88zM344 836q22 -17 40 -26.5t44 -9.5
q41 0 70.5 30.5t29.5 91.5h-73q0 -52 -30 -52q-9 0 -17 5t-22 16q-19 17 -38 27t-46 10q-41 0 -70.5 -31t-29.5 -92h73q0 52 31 52q9 0 17 -5t21 -16z" />
    <glyph glyph-name="Uhungarumlaut" unicode="&#x170;" horiz-adv-x="722" 
d="M642 284v416h-90v-411q0 -106 -52.5 -160t-138.5 -54q-87 0 -139 54t-52 160v411h-91v-416q0 -94 36.5 -160t100 -99.5t145.5 -33.5t145.5 33.5t99.5 99.5t36 160zM601 933h-97l-99 -136h84zM404 933h-95l-96 -136h84z" />
    <glyph glyph-name="Umacron" unicode="&#x16a;" horiz-adv-x="722" 
d="M642 284v416h-90v-411q0 -106 -52.5 -160t-138.5 -54q-87 0 -139 54t-52 160v411h-91v-416q0 -94 36.5 -160t100 -99.5t145.5 -33.5t145.5 33.5t99.5 99.5t36 160zM518 831v72h-313v-72h313z" />
    <glyph glyph-name="Uogonek" unicode="&#x172;" horiz-adv-x="722" 
d="M552 700h90v-416q0 -117 -54.5 -189.5t-147.5 -94.5l-32 -34q-19 -20 -19 -38q0 -11 8 -18t23 -7h35v-75h-52q-45 0 -70.5 21t-25.5 53q0 41 38 75l16 14q-82 0 -145.5 33.5t-100 99.5t-36.5 160v416h91v-411q0 -106 52 -160t139 -54q86 0 138.5 54t52.5 160v411z" />
    <glyph glyph-name="Uring" unicode="&#x16e;" horiz-adv-x="722" 
d="M642 284v416h-90v-411q0 -106 -52.5 -160t-138.5 -54q-87 0 -139 54t-52 160v411h-91v-416q0 -94 36.5 -160t100 -99.5t145.5 -33.5t145.5 33.5t99.5 99.5t36 160zM240 875q0 -45 34.5 -74t87.5 -29t87.5 29t34.5 74q0 46 -34.5 75.5t-87.5 29.5t-87.5 -29.5t-34.5 -75.5
zM419 875q0 -21 -15 -33.5t-42 -12.5q-26 0 -41 12.5t-15 33.5t15 34t41 13q27 0 42 -13t15 -34z" />
    <glyph glyph-name="Utilde" unicode="&#x168;" horiz-adv-x="722" 
d="M642 284v416h-90v-411q0 -106 -52.5 -160t-138.5 -54q-87 0 -139 54t-52 160v411h-91v-416q0 -94 36.5 -160t100 -99.5t145.5 -33.5t145.5 33.5t99.5 99.5t36 160zM344 836q22 -17 40 -26.5t44 -9.5q41 0 70.5 30.5t29.5 91.5h-73q0 -52 -30 -52q-9 0 -17 5t-22 16
q-19 17 -38 27t-46 10q-41 0 -70.5 -31t-29.5 -92h73q0 52 31 52q9 0 17 -5t21 -16z" />
    <glyph glyph-name="V" unicode="V" horiz-adv-x="675" 
d="M310 199q27 -68 27 -90h4q0 22 27 90l189 501h93l-269 -700h-86l-270 700h96z" />
    <glyph glyph-name="W" unicode="W" horiz-adv-x="1008" 
d="M695 235q27 -89 27 -104h4q0 21 24 104l138 465h92l-213 -701h-84l-151 467q-26 80 -26 100h-4q0 -20 -26 -100l-151 -467h-84l-213 701h93l138 -466q24 -85 24 -105h4q0 17 27 104l150 468h82z" />
    <glyph glyph-name="Wacute" unicode="&#x1e82;" horiz-adv-x="1008" 
d="M695 235l-149 466h-82l-150 -468q-27 -87 -27 -104h-4q0 20 -24 105l-138 466h-93l213 -701h84l151 467q26 80 26 100h4q0 -20 26 -100l151 -467h84l213 701h-92l-138 -465q-24 -83 -24 -104h-4q0 15 -27 104zM635 933h-97l-97 -136h85z" />
    <glyph glyph-name="Wcircumflex" unicode="&#x174;" horiz-adv-x="1008" 
d="M695 235l-149 466h-82l-150 -468q-27 -87 -27 -104h-4q0 20 -24 105l-138 466h-93l213 -701h84l151 467q26 80 26 100h4q0 -20 26 -100l151 -467h84l213 701h-92l-138 -465q-24 -83 -24 -104h-4q0 15 -27 104zM334 797h98q20 21 43 47.5t27 34.5h3q4 -8 27.5 -34.5
t43.5 -47.5h98l-132 136h-76z" />
    <glyph glyph-name="Wdieresis" unicode="&#x1e84;" horiz-adv-x="1008" 
d="M695 235l-149 466h-82l-150 -468q-27 -87 -27 -104h-4q0 20 -24 105l-138 466h-93l213 -701h84l151 467q26 80 26 100h4q0 -20 26 -100l151 -467h84l213 701h-92l-138 -465q-24 -83 -24 -104h-4q0 15 -27 104zM336 872q0 -25 16 -40t40 -15t40 15t16 40t-16 40t-40 15
t-40 -15t-16 -40zM560 872q0 -25 16 -40t40 -15t40 15t16 40t-16 40t-40 15t-40 -15t-16 -40z" />
    <glyph glyph-name="uni1E88" unicode="&#x1e88;" horiz-adv-x="1008" 
d="M695 235l-149 466h-82l-150 -468q-27 -87 -27 -104h-4q0 20 -24 105l-138 466h-93l213 -701h84l151 467q26 80 26 100h4q0 -20 26 -100l151 -467h84l213 701h-92l-138 -465q-24 -83 -24 -104h-4q0 15 -27 104zM444 -122q0 -26 17 -42.5t43 -16.5q27 0 44.5 16.5
t17.5 42.5t-18 43t-44 17t-43 -17t-17 -43z" />
    <glyph glyph-name="Wgrave" unicode="&#x1e80;" horiz-adv-x="1008" 
d="M695 235l-149 466h-82l-150 -468q-27 -87 -27 -104h-4q0 20 -24 105l-138 466h-93l213 -701h84l151 467q26 80 26 100h4q0 -20 26 -100l151 -467h84l213 701h-92l-138 -465q-24 -83 -24 -104h-4q0 15 -27 104zM567 797l-97 136h-97l109 -136h85z" />
    <glyph glyph-name="X" unicode="X" horiz-adv-x="660" 
d="M384 357l263 -357h-106l-156 209q-51 70 -55 83h-4q-3 -9 -18.5 -33.5t-34.5 -49.5l-156 -209h-104l264 356l-254 344h106l146 -196q4 -6 27.5 -39t26.5 -45h4q6 19 53 84l147 196h104z" />
    <glyph glyph-name="Y" unicode="Y" horiz-adv-x="703" 
d="M569 700h103l-276 -366v-334h-90v336l-277 364h106l217 -276z" />
    <glyph glyph-name="Yacute" unicode="&#xdd;" horiz-adv-x="703" 
d="M569 700l-217 -276l-217 276h-106l277 -364v-336h90v334l276 366h-103zM483 933h-97l-97 -136h85z" />
    <glyph glyph-name="Ycircumflex" unicode="&#x176;" horiz-adv-x="703" 
d="M569 700l-217 -276l-217 276h-106l277 -364v-336h90v334l276 366h-103zM182 797h98q20 21 43 47.5t27 34.5h3q4 -8 27.5 -34.5t43.5 -47.5h98l-132 136h-76z" />
    <glyph glyph-name="Ydieresis" unicode="&#x178;" horiz-adv-x="703" 
d="M569 700l-217 -276l-217 276h-106l277 -364v-336h90v334l276 366h-103zM184 872q0 -25 16 -40t40 -15t40 15t16 40t-16 40t-40 15t-40 -15t-16 -40zM408 872q0 -25 16 -40t40 -15t40 15t16 40t-16 40t-40 15t-40 -15t-16 -40z" />
    <glyph glyph-name="uni1EF4" unicode="&#x1ef4;" horiz-adv-x="703" 
d="M569 700l-217 -276l-217 276h-106l277 -364v-336h90v334l276 366h-103zM290 -122q0 -26 17 -42.5t43 -16.5q27 0 44.5 16.5t17.5 42.5t-18 43t-44 17t-43 -17t-17 -43z" />
    <glyph glyph-name="Ygrave" unicode="&#x1ef2;" horiz-adv-x="703" 
d="M569 700l-217 -276l-217 276h-106l277 -364v-336h90v334l276 366h-103zM415 797l-97 136h-97l109 -136h85z" />
    <glyph glyph-name="uni1EF6" unicode="&#x1ef6;" horiz-adv-x="703" 
d="M569 700l-217 -276l-217 276h-106l277 -364v-336h90v334l276 366h-103zM336 769h74q37 43 37 82q0 33 -26.5 56t-69.5 23q-28 0 -52.5 -11.5t-41.5 -33.5l45 -45q10 10 21.5 16.5t21.5 6.5q13 0 20.5 -7t7.5 -18q0 -22 -37 -69z" />
    <glyph glyph-name="uni0232" unicode="&#x232;" horiz-adv-x="703" 
d="M569 700l-217 -276l-217 276h-106l277 -364v-336h90v334l276 366h-103zM508 831v72h-313v-72h313z" />
    <glyph glyph-name="uni1EF8" unicode="&#x1ef8;" horiz-adv-x="703" 
d="M569 700l-217 -276l-217 276h-106l277 -364v-336h90v334l276 366h-103zM334 836q22 -17 40 -26.5t44 -9.5q41 0 70.5 30.5t29.5 91.5h-73q0 -52 -30 -52q-9 0 -17 5t-22 16q-19 17 -38 27t-46 10q-41 0 -70.5 -31t-29.5 -92h73q0 52 31 52q9 0 17 -5t21 -16z" />
    <glyph glyph-name="Z" unicode="Z" horiz-adv-x="597" 
d="M41 0v70l357 495q36 49 51 58l-1 3q-17 -8 -77 -8h-323v82h504v-70l-357 -495q-36 -49 -51 -58l1 -3q17 8 77 8h332v-82h-513z" />
    <glyph glyph-name="Zacute" unicode="&#x179;" horiz-adv-x="597" 
d="M41 0h513v82h-332q-60 0 -77 -8l-1 3q15 9 51 58l357 495v70h-504v-82h323q60 0 77 8l1 -3q-15 -9 -51 -58l-357 -495v-70zM430 933h-97l-97 -136h85z" />
    <glyph glyph-name="Zcaron" unicode="&#x17d;" horiz-adv-x="597" 
d="M41 0h513v82h-332q-60 0 -77 -8l-1 3q15 9 51 58l357 495v70h-504v-82h323q60 0 77 8l1 -3q-15 -9 -51 -58l-357 -495v-70zM261 797h77l132 136h-98q-20 -21 -43 -47.5t-28 -34.5h-3q-3 8 -26.5 34.5t-43.5 47.5h-99z" />
    <glyph glyph-name="Zdotaccent" unicode="&#x17b;" horiz-adv-x="597" 
d="M41 0h513v82h-332q-60 0 -77 -8l-1 3q15 9 51 58l357 495v70h-504v-82h323q60 0 77 8l1 -3q-15 -9 -51 -58l-357 -495v-70zM239 877q0 -27 17 -43.5t43 -16.5q27 0 44.5 16.5t17.5 43.5q0 25 -18 42t-44 17t-43 -17t-17 -42z" />
    <glyph glyph-name="uni1E92" unicode="&#x1e92;" horiz-adv-x="597" 
d="M41 0h513v82h-332q-60 0 -77 -8l-1 3q15 9 51 58l357 495v70h-504v-82h323q60 0 77 8l1 -3q-15 -9 -51 -58l-357 -495v-70zM236 -122q0 -26 17 -42.5t43 -16.5q27 0 44.5 16.5t17.5 42.5t-18 43t-44 17t-43 -17t-17 -43z" />
    <glyph glyph-name="uni1E94" unicode="&#x1e94;" horiz-adv-x="597" 
d="M41 0h513v82h-332q-60 0 -77 -8l-1 3q15 9 51 58l357 495v70h-504v-82h323q60 0 77 8l1 -3q-15 -9 -51 -58l-357 -495v-70zM453 -142v72h-313v-72h313z" />
    <glyph glyph-name="uni1E96.case" horiz-adv-x="735" 
d="M558 394h-382v306h-89v-700h89v312h382v-312h90v700h-90v-306zM519 -142v72h-313v-72h313z" />
    <glyph glyph-name="uni013B.latnMAH" horiz-adv-x="559" 
d="M527 83v-83h-191l26 -23q38 -34 38 -75q0 -32 -25.5 -53t-70.5 -21h-73v75h56q15 0 23 7t8 18q0 18 -19 38l-33 34h-179v700h90v-617h350z" />
    <glyph glyph-name="uni0145.latnMAH" horiz-adv-x="750" 
d="M573 700v-456q0 -82 6 -103l-3 -1q-4 10 -20 34.5t-36 51.5l-354 474h-79v-700h89v456q0 82 -6 103l3 1q7 -18 56 -86l353 -474h81v700h-90zM299 -172h72q46 0 71 21t25 53q0 41 -38 75l-37 34l-58 -11l33 -34q19 -20 19 -38q0 -11 -8.5 -18t-22.5 -7h-56v-75z" />
    <glyph glyph-name="Aogonek.latnNAV" horiz-adv-x="691" 
d="M669 0l-280 700h-86l-280 -700h94l80 208h296l80 -208h96zM228 287l88 228q27 67 27 88h4q0 -21 27 -88l88 -228h-234zM367 -172h52v75h-35q-15 0 -23 7t-8 18q0 18 19 38l32 34l-57 11l-38 -34q-38 -34 -38 -75q0 -32 25.5 -53t70.5 -21z" />
    <glyph glyph-name="Eogonek.latnNAV" horiz-adv-x="615" 
d="M560 618h-383v-223h343v-81h-343v-232h383v-82h-175l-33 -34q-19 -20 -19 -38q0 -11 8.5 -18t22.5 -7h36v-75h-52q-46 0 -71 21t-25 53q0 41 38 75l25 23h-228v700h473v-82z" />
    <glyph glyph-name="J.latnNLD" horiz-adv-x="531" 
d="M23 132q29 -64 82 -102.5t129 -38.5q63 0 112 26t76.5 77t27.5 123v483h-90v-478q0 -73 -34.5 -110t-94.5 -37q-49 0 -83.5 27.5t-51.5 71.5zM536 933h-97l-97 -136h85z" />
    <glyph glyph-name="Eng.latnNSM" horiz-adv-x="748" 
d="M573 700h90v-725q0 -67 -37 -107.5t-107 -40.5h-60v83h51q34 0 48.5 19t14.5 58v27l-344 460q-49 68 -56 86l-3 -1q6 -21 6 -103v-456h-89v701h79l354 -475q20 -27 36 -51.5t20 -34.5l3 1q-6 21 -6 103v456z" />
    <glyph glyph-name="a" unicode="a" horiz-adv-x="556" 
d="M373 492.5q51 -21.5 82 -66t31 -111.5v-315h-83v50q-48 -60 -158 -60q-86 0 -144 41.5t-58 114.5q0 48 27.5 83t74 53.5t102.5 18.5q104 0 153 -55v61q0 66 -39.5 98t-100.5 32q-45 0 -79.5 -19t-52.5 -52l-63 47q28 49 79.5 75t116.5 26q61 0 112 -21.5zM364.5 81
q37.5 23 37.5 65t-37.5 65t-96.5 23q-60 0 -98 -22.5t-38 -65.5t38 -65.5t98 -22.5q59 0 96.5 23z" />
    <glyph glyph-name="aacute" unicode="&#xe1;" horiz-adv-x="556" 
d="M486 315q0 67 -31 111.5t-82 66t-112 21.5q-65 0 -116.5 -26t-79.5 -75l63 -47q18 33 52.5 52t79.5 19q61 0 100.5 -32t39.5 -98v-61q-49 55 -153 55q-56 0 -102.5 -18.5t-74 -53.5t-27.5 -83q0 -73 58 -114.5t144 -41.5q110 0 158 60v-50h83v315zM402 146
q0 -42 -37.5 -65t-96.5 -23q-60 0 -98 22.5t-38 65.5t38 65.5t98 22.5q59 0 96.5 -23t37.5 -65zM403 738h-97l-97 -136h85z" />
    <glyph glyph-name="abreve" unicode="&#x103;" horiz-adv-x="556" 
d="M486 315q0 67 -31 111.5t-82 66t-112 21.5q-65 0 -116.5 -26t-79.5 -75l63 -47q18 33 52.5 52t79.5 19q61 0 100.5 -32t39.5 -98v-61q-49 55 -153 55q-56 0 -102.5 -18.5t-74 -53.5t-27.5 -83q0 -73 58 -114.5t144 -41.5q110 0 158 60v-50h83v315zM402 146
q0 -42 -37.5 -65t-96.5 -23q-60 0 -98 22.5t-38 65.5t38 65.5t98 22.5q59 0 96.5 -23t37.5 -65zM115 738q2 -65 46 -102.5t111 -37.5t111 37.5t46 102.5h-77q-1 -36 -22.5 -55t-57.5 -19t-57 18.5t-22 55.5h-78z" />
    <glyph glyph-name="uni1EAF" unicode="&#x1eaf;" horiz-adv-x="556" 
d="M486 315q0 67 -31 111.5t-82 66t-112 21.5q-65 0 -116.5 -26t-79.5 -75l63 -47q18 33 52.5 52t79.5 19q61 0 100.5 -32t39.5 -98v-61q-49 55 -153 55q-56 0 -102.5 -18.5t-74 -53.5t-27.5 -83q0 -73 58 -114.5t144 -41.5q110 0 158 60v-50h83v315zM402 146
q0 -42 -37.5 -65t-96.5 -23q-60 0 -98 22.5t-38 65.5t38 65.5t98 22.5q59 0 96.5 -23t37.5 -65zM115 726q2 -64 46 -101.5t111 -37.5t111 37.5t46 101.5h-77q-1 -36 -23 -55t-57 -19t-57 19t-23 55h-77zM299 747l78 101h-97l-65 -101h84z" />
    <glyph glyph-name="uni1EB7" unicode="&#x1eb7;" horiz-adv-x="556" 
d="M486 315q0 67 -31 111.5t-82 66t-112 21.5q-65 0 -116.5 -26t-79.5 -75l63 -47q18 33 52.5 52t79.5 19q61 0 100.5 -32t39.5 -98v-61q-49 55 -153 55q-56 0 -102.5 -18.5t-74 -53.5t-27.5 -83q0 -73 58 -114.5t144 -41.5q110 0 158 60v-50h83v315zM402 146
q0 -42 -37.5 -65t-96.5 -23q-60 0 -98 22.5t-38 65.5t38 65.5t98 22.5q59 0 96.5 -23t37.5 -65zM115 738q2 -65 46 -102.5t111 -37.5t111 37.5t46 102.5h-77q-1 -36 -22.5 -55t-57.5 -19t-57 18.5t-22 55.5h-78zM214 -122q0 -26 17 -42.5t43 -16.5q27 0 44.5 16.5t17.5 42.5
t-18 43t-44 17t-43 -17t-17 -43z" />
    <glyph glyph-name="uni1EB1" unicode="&#x1eb1;" horiz-adv-x="556" 
d="M486 315q0 67 -31 111.5t-82 66t-112 21.5q-65 0 -116.5 -26t-79.5 -75l63 -47q18 33 52.5 52t79.5 19q61 0 100.5 -32t39.5 -98v-61q-49 55 -153 55q-56 0 -102.5 -18.5t-74 -53.5t-27.5 -83q0 -73 58 -114.5t144 -41.5q110 0 158 60v-50h83v315zM402 146
q0 -42 -37.5 -65t-96.5 -23q-60 0 -98 22.5t-38 65.5t38 65.5t98 22.5q59 0 96.5 -23t37.5 -65zM115 726q2 -64 46 -101.5t111 -37.5t111 37.5t46 101.5h-77q-1 -36 -23 -55t-57 -19t-57 19t-23 55h-77zM329 747l-64 101h-97l78 -101h83z" />
    <glyph glyph-name="uni1EB3" unicode="&#x1eb3;" horiz-adv-x="556" 
d="M486 315q0 67 -31 111.5t-82 66t-112 21.5q-65 0 -116.5 -26t-79.5 -75l63 -47q18 33 52.5 52t79.5 19q61 0 100.5 -32t39.5 -98v-61q-49 55 -153 55q-56 0 -102.5 -18.5t-74 -53.5t-27.5 -83q0 -73 58 -114.5t144 -41.5q110 0 158 60v-50h83v315zM402 146
q0 -42 -37.5 -65t-96.5 -23q-60 0 -98 22.5t-38 65.5t38 65.5t98 22.5q59 0 96.5 -23t37.5 -65zM115 726q2 -64 46 -101.5t111 -37.5t111 37.5t46 101.5h-77q-1 -36 -23 -55t-57 -19t-57 19t-23 55h-77zM240 759h74q37 43 37 82q0 33 -26.5 56t-69.5 23q-28 0 -52.5 -11.5
t-40.5 -33.5l44 -45q10 10 21.5 16t22.5 6q13 0 20 -6.5t7 -18.5q0 -21 -37 -68z" />
    <glyph glyph-name="uni1EB5" unicode="&#x1eb5;" horiz-adv-x="556" 
d="M486 315q0 67 -31 111.5t-82 66t-112 21.5q-65 0 -116.5 -26t-79.5 -75l63 -47q18 33 52.5 52t79.5 19q61 0 100.5 -32t39.5 -98v-61q-49 55 -153 55q-56 0 -102.5 -18.5t-74 -53.5t-27.5 -83q0 -73 58 -114.5t144 -41.5q110 0 158 60v-50h83v315zM402 146
q0 -42 -37.5 -65t-96.5 -23q-60 0 -98 22.5t-38 65.5t38 65.5t98 22.5q59 0 96.5 -23t37.5 -65zM116 726q1 -64 45 -101.5t111 -37.5t111 37.5t46 101.5h-77q-1 -36 -23 -55t-57 -19t-56.5 19t-22.5 55h-77zM253 793q20 -13 38.5 -20.5t45.5 -7.5q39 0 68 27t29 77h-72
q0 -19 -8.5 -29t-22.5 -10q-9 0 -17 4t-21 12q-20 13 -38.5 20.5t-45.5 7.5q-39 0 -68.5 -27.5t-29.5 -77.5h73q0 20 8.5 30t22.5 10q9 0 17 -4t21 -12z" />
    <glyph glyph-name="uni01CE" unicode="&#x1ce;" horiz-adv-x="556" 
d="M486 315q0 67 -31 111.5t-82 66t-112 21.5q-65 0 -116.5 -26t-79.5 -75l63 -47q18 33 52.5 52t79.5 19q61 0 100.5 -32t39.5 -98v-61q-49 55 -153 55q-56 0 -102.5 -18.5t-74 -53.5t-27.5 -83q0 -73 58 -114.5t144 -41.5q110 0 158 60v-50h83v315zM402 146
q0 -42 -37.5 -65t-96.5 -23q-60 0 -98 22.5t-38 65.5t38 65.5t98 22.5q59 0 96.5 -23t37.5 -65zM234 602h77l132 136h-98q-20 -21 -43 -47.5t-28 -34.5h-3q-3 8 -26.5 34.5t-43.5 47.5h-99z" />
    <glyph glyph-name="acircumflex" unicode="&#xe2;" horiz-adv-x="556" 
d="M486 315q0 67 -31 111.5t-82 66t-112 21.5q-65 0 -116.5 -26t-79.5 -75l63 -47q18 33 52.5 52t79.5 19q61 0 100.5 -32t39.5 -98v-61q-49 55 -153 55q-56 0 -102.5 -18.5t-74 -53.5t-27.5 -83q0 -73 58 -114.5t144 -41.5q110 0 158 60v-50h83v315zM402 146
q0 -42 -37.5 -65t-96.5 -23q-60 0 -98 22.5t-38 65.5t38 65.5t98 22.5q59 0 96.5 -23t37.5 -65zM103 602h98q20 21 43 47.5t27 34.5h3q4 -8 27.5 -34.5t43.5 -47.5h98l-132 136h-76z" />
    <glyph glyph-name="uni1EA5" unicode="&#x1ea5;" horiz-adv-x="556" 
d="M486 315q0 67 -31 111.5t-82 66t-112 21.5q-65 0 -116.5 -26t-79.5 -75l63 -47q18 33 52.5 52t79.5 19q61 0 100.5 -32t39.5 -98v-61q-49 55 -153 55q-56 0 -102.5 -18.5t-74 -53.5t-27.5 -83q0 -73 58 -114.5t144 -41.5q110 0 158 60v-50h83v315zM402 146
q0 -42 -37.5 -65t-96.5 -23q-60 0 -98 22.5t-38 65.5t38 65.5t98 22.5q59 0 96.5 -23t37.5 -65zM102 587h99q20 21 42.5 47.5t27.5 34.5h3q3 -7 27 -34t44 -48h98l-132 136h-77zM546 804h-95l-64 -113h81z" />
    <glyph glyph-name="uni1EAD" unicode="&#x1ead;" horiz-adv-x="556" 
d="M486 315q0 67 -31 111.5t-82 66t-112 21.5q-65 0 -116.5 -26t-79.5 -75l63 -47q18 33 52.5 52t79.5 19q61 0 100.5 -32t39.5 -98v-61q-49 55 -153 55q-56 0 -102.5 -18.5t-74 -53.5t-27.5 -83q0 -73 58 -114.5t144 -41.5q110 0 158 60v-50h83v315zM402 146
q0 -42 -37.5 -65t-96.5 -23q-60 0 -98 22.5t-38 65.5t38 65.5t98 22.5q59 0 96.5 -23t37.5 -65zM103 602h98q20 21 43 47.5t27 34.5h3q4 -8 27.5 -34.5t43.5 -47.5h98l-132 136h-76zM214 -122q0 -26 17 -42.5t43 -16.5q27 0 44.5 16.5t17.5 42.5t-18 43t-44 17t-43 -17
t-17 -43z" />
    <glyph glyph-name="uni1EA7" unicode="&#x1ea7;" horiz-adv-x="556" 
d="M486 315q0 67 -31 111.5t-82 66t-112 21.5q-65 0 -116.5 -26t-79.5 -75l63 -47q18 33 52.5 52t79.5 19q61 0 100.5 -32t39.5 -98v-61q-49 55 -153 55q-56 0 -102.5 -18.5t-74 -53.5t-27.5 -83q0 -73 58 -114.5t144 -41.5q110 0 158 60v-50h83v315zM402 146
q0 -42 -37.5 -65t-96.5 -23q-60 0 -98 22.5t-38 65.5t38 65.5t98 22.5q59 0 96.5 -23t37.5 -65zM102 587h99q20 21 42.5 47.5t27.5 34.5h3q3 -7 27 -34t44 -48h98l-132 136h-77zM486 691l-65 113h-94l78 -113h81z" />
    <glyph glyph-name="uni1EA9" unicode="&#x1ea9;" horiz-adv-x="556" 
d="M486 315q0 67 -31 111.5t-82 66t-112 21.5q-65 0 -116.5 -26t-79.5 -75l63 -47q18 33 52.5 52t79.5 19q61 0 100.5 -32t39.5 -98v-61q-49 55 -153 55q-56 0 -102.5 -18.5t-74 -53.5t-27.5 -83q0 -73 58 -114.5t144 -41.5q110 0 158 60v-50h83v315zM402 146
q0 -42 -37.5 -65t-96.5 -23q-60 0 -98 22.5t-38 65.5t38 65.5t98 22.5q59 0 96.5 -23t37.5 -65zM102 587h99q20 21 42.5 47.5t27.5 34.5h3q3 -7 27 -34t44 -48h98l-132 136h-77zM375 698h74q37 43 37 82q0 33 -26.5 56t-69.5 23q-28 0 -53 -11.5t-41 -33.5l45 -45
q9 10 20.5 16.5t22.5 6.5q13 0 20.5 -7t7.5 -18q0 -22 -37 -69z" />
    <glyph glyph-name="uni1EAB" unicode="&#x1eab;" horiz-adv-x="556" 
d="M486 315q0 67 -31 111.5t-82 66t-112 21.5q-65 0 -116.5 -26t-79.5 -75l63 -47q18 33 52.5 52t79.5 19q61 0 100.5 -32t39.5 -98v-61q-49 55 -153 55q-56 0 -102.5 -18.5t-74 -53.5t-27.5 -83q0 -73 58 -114.5t144 -41.5q110 0 158 60v-50h83v315zM402 146
q0 -42 -37.5 -65t-96.5 -23q-60 0 -98 22.5t-38 65.5t38 65.5t98 22.5q59 0 96.5 -23t37.5 -65zM254 790q22 -13 40 -20t44 -7q39 0 68.5 27.5t29.5 78.5h-73q0 -19 -8.5 -29t-21.5 -10q-9 0 -17.5 4t-21.5 12q-19 13 -37.5 20.5t-45.5 7.5q-40 0 -69 -28t-29 -79h72
q0 20 8.5 29.5t22.5 9.5q9 0 17 -4t21 -12zM102 587h99q19 21 42 47.5t28 34.5h3q5 -11 70 -82h99l-132 136h-77z" />
    <glyph glyph-name="adieresis" unicode="&#xe4;" horiz-adv-x="556" 
d="M486 315q0 67 -31 111.5t-82 66t-112 21.5q-65 0 -116.5 -26t-79.5 -75l63 -47q18 33 52.5 52t79.5 19q61 0 100.5 -32t39.5 -98v-61q-49 55 -153 55q-56 0 -102.5 -18.5t-74 -53.5t-27.5 -83q0 -73 58 -114.5t144 -41.5q110 0 158 60v-50h83v315zM402 146
q0 -42 -37.5 -65t-96.5 -23q-60 0 -98 22.5t-38 65.5t38 65.5t98 22.5q59 0 96.5 -23t37.5 -65zM104 677q0 -25 16 -40t40 -15t40 15t16 40t-16 40t-40 15t-40 -15t-16 -40zM328 677q0 -25 16 -40t40 -15t40 15t16 40t-16 40t-40 15t-40 -15t-16 -40z" />
    <glyph glyph-name="uni1EA1" unicode="&#x1ea1;" horiz-adv-x="556" 
d="M486 315q0 67 -31 111.5t-82 66t-112 21.5q-65 0 -116.5 -26t-79.5 -75l63 -47q18 33 52.5 52t79.5 19q61 0 100.5 -32t39.5 -98v-61q-49 55 -153 55q-56 0 -102.5 -18.5t-74 -53.5t-27.5 -83q0 -73 58 -114.5t144 -41.5q110 0 158 60v-50h83v315zM402 146
q0 -42 -37.5 -65t-96.5 -23q-60 0 -98 22.5t-38 65.5t38 65.5t98 22.5q59 0 96.5 -23t37.5 -65zM214 -122q0 -26 17 -42.5t43 -16.5q27 0 44.5 16.5t17.5 42.5t-18 43t-44 17t-43 -17t-17 -43z" />
    <glyph glyph-name="agrave" unicode="&#xe0;" horiz-adv-x="556" 
d="M486 315q0 67 -31 111.5t-82 66t-112 21.5q-65 0 -116.5 -26t-79.5 -75l63 -47q18 33 52.5 52t79.5 19q61 0 100.5 -32t39.5 -98v-61q-49 55 -153 55q-56 0 -102.5 -18.5t-74 -53.5t-27.5 -83q0 -73 58 -114.5t144 -41.5q110 0 158 60v-50h83v315zM402 146
q0 -42 -37.5 -65t-96.5 -23q-60 0 -98 22.5t-38 65.5t38 65.5t98 22.5q59 0 96.5 -23t37.5 -65zM335 602l-97 136h-97l109 -136h85z" />
    <glyph glyph-name="uni1EA3" unicode="&#x1ea3;" horiz-adv-x="556" 
d="M486 315q0 67 -31 111.5t-82 66t-112 21.5q-65 0 -116.5 -26t-79.5 -75l63 -47q18 33 52.5 52t79.5 19q61 0 100.5 -32t39.5 -98v-61q-49 55 -153 55q-56 0 -102.5 -18.5t-74 -53.5t-27.5 -83q0 -73 58 -114.5t144 -41.5q110 0 158 60v-50h83v315zM402 146
q0 -42 -37.5 -65t-96.5 -23q-60 0 -98 22.5t-38 65.5t38 65.5t98 22.5q59 0 96.5 -23t37.5 -65zM256 597h74q37 43 37 82q0 33 -26.5 56t-69.5 23q-28 0 -52.5 -11.5t-41.5 -33.5l45 -45q10 10 21.5 16.5t21.5 6.5q13 0 20.5 -7t7.5 -18q0 -22 -37 -69z" />
    <glyph glyph-name="amacron" unicode="&#x101;" horiz-adv-x="556" 
d="M486 315q0 67 -31 111.5t-82 66t-112 21.5q-65 0 -116.5 -26t-79.5 -75l63 -47q18 33 52.5 52t79.5 19q61 0 100.5 -32t39.5 -98v-61q-49 55 -153 55q-56 0 -102.5 -18.5t-74 -53.5t-27.5 -83q0 -73 58 -114.5t144 -41.5q110 0 158 60v-50h83v315zM402 146
q0 -42 -37.5 -65t-96.5 -23q-60 0 -98 22.5t-38 65.5t38 65.5t98 22.5q59 0 96.5 -23t37.5 -65zM429 636v72h-313v-72h313z" />
    <glyph glyph-name="aogonek" unicode="&#x105;" horiz-adv-x="556" 
d="M501 -97v-75h-52q-45 0 -70.5 21t-25.5 53q0 41 38 75l26 23h-14v50q-48 -60 -158 -60q-86 0 -144 41.5t-58 114.5q0 48 27.5 83t74 53.5t102.5 18.5q104 0 153 -55v61q0 66 -39.5 98t-100.5 32q-45 0 -79.5 -19t-52.5 -52l-63 47q28 49 79.5 75t116.5 26q61 0 112 -21.5
t82 -66t31 -111.5v-315l-32 -34q-19 -20 -19 -38q0 -11 8 -18t23 -7h35zM364.5 81q37.5 23 37.5 65t-37.5 65t-96.5 23q-60 0 -98 -22.5t-38 -65.5t38 -65.5t98 -22.5q59 0 96.5 23z" />
    <glyph glyph-name="aring" unicode="&#xe5;" horiz-adv-x="556" 
d="M486 315q0 67 -31 111.5t-82 66t-112 21.5q-65 0 -116.5 -26t-79.5 -75l63 -47q18 33 52.5 52t79.5 19q61 0 100.5 -32t39.5 -98v-61q-49 55 -153 55q-56 0 -102.5 -18.5t-74 -53.5t-27.5 -83q0 -73 58 -114.5t144 -41.5q110 0 158 60v-50h83v315zM150 680
q0 -45 34.5 -74t87.5 -29t87.5 29t34.5 74q0 46 -34.5 75.5t-87.5 29.5t-87.5 -29.5t-34.5 -75.5zM402 146q0 -42 -37.5 -65t-96.5 -23q-60 0 -98 22.5t-38 65.5t38 65.5t98 22.5q59 0 96.5 -23t37.5 -65zM329 680q0 -21 -15 -33.5t-42 -12.5q-26 0 -41 12.5t-15 33.5t15 34
t41 13q27 0 42 -13t15 -34z" />
    <glyph glyph-name="atilde" unicode="&#xe3;" horiz-adv-x="556" 
d="M486 315q0 67 -31 111.5t-82 66t-112 21.5q-65 0 -116.5 -26t-79.5 -75l63 -47q18 33 52.5 52t79.5 19q61 0 100.5 -32t39.5 -98v-61q-49 55 -153 55q-56 0 -102.5 -18.5t-74 -53.5t-27.5 -83q0 -73 58 -114.5t144 -41.5q110 0 158 60v-50h83v315zM402 146
q0 -42 -37.5 -65t-96.5 -23q-60 0 -98 22.5t-38 65.5t38 65.5t98 22.5q59 0 96.5 -23t37.5 -65zM255 641q22 -17 40 -26.5t44 -9.5q41 0 70.5 30.5t29.5 91.5h-73q0 -52 -30 -52q-9 0 -17 5t-22 16q-19 17 -38 27t-46 10q-41 0 -70.5 -31t-29.5 -92h73q0 52 31 52q9 0 17 -5
t21 -16z" />
    <glyph glyph-name="ae" unicode="&#xe6;" horiz-adv-x="921" 
d="M871 233h-384q4 -79 48.5 -122.5t111.5 -43.5q99 0 150 72l60 -51q-38 -51 -92.5 -74.5t-119.5 -23.5q-60 0 -109.5 25.5t-80.5 72.5q-22 -46 -74.5 -72t-122.5 -26q-95 0 -155 41t-60 115q0 48 27.5 83t74 53.5t102.5 18.5q104 0 153 -55v61q0 66 -39.5 98t-100.5 32
q-45 0 -79.5 -19t-52.5 -52l-63 47q28 49 79.5 75t115.5 26t114.5 -25t76.5 -76q31 48 80 74.5t109 26.5q67 0 119.5 -32t82.5 -90t30 -134q0 -17 -1 -25zM539 403q-40 -37 -50 -104h293q-9 68 -47.5 104.5t-95.5 36.5q-60 0 -100 -37zM364.5 81q37.5 23 37.5 65t-37.5 65
t-96.5 23q-60 0 -98 -22.5t-38 -65.5t38 -65.5t98 -22.5q59 0 96.5 23z" />
    <glyph glyph-name="uni01E3" unicode="&#x1e3;" horiz-adv-x="921" 
d="M871 233q1 8 1 25q0 76 -30 134t-82.5 90t-119.5 32q-60 0 -109 -26.5t-80 -74.5q-26 51 -76.5 76t-114.5 25t-115.5 -26t-79.5 -75l63 -47q18 33 52.5 52t79.5 19q61 0 100.5 -32t39.5 -98v-61q-49 55 -153 55q-56 0 -102.5 -18.5t-74 -53.5t-27.5 -83q0 -74 60 -115
t155 -41q70 0 122.5 26t74.5 72q31 -47 80.5 -72.5t109.5 -25.5q65 0 119.5 23.5t92.5 74.5l-60 51q-51 -72 -150 -72q-67 0 -111.5 43.5t-48.5 122.5h384zM402 146q0 -42 -37.5 -65t-96.5 -23q-60 0 -98 22.5t-38 65.5t38 65.5t98 22.5q59 0 96.5 -23t37.5 -65zM489 299
q10 67 50 104t100 37q57 0 95.5 -36.5t47.5 -104.5h-293zM610 636v72h-313v-72h313z" />
    <glyph glyph-name="b" unicode="b" horiz-adv-x="623" 
d="M456.5 481q53.5 -33 84 -92.5t30.5 -135.5q0 -77 -30.5 -136.5t-84 -92.5t-119.5 -33q-60 0 -104.5 28.5t-71.5 77.5v-97h-86v750h86v-342q27 49 71.5 77.5t104.5 28.5q66 0 119.5 -33zM439.5 118q44.5 49 44.5 135q0 85 -45 134t-117 49q-73 0 -118 -49t-45 -134
t45 -134.5t118 -49.5t117.5 49z" />
    <glyph glyph-name="c" unicode="c" horiz-adv-x="562" 
d="M173 24q-57 33 -89.5 93t-32.5 136t32.5 135.5t89.5 92.5t128 33q72 0 132 -31.5t92 -99.5l-70 -41q-23 49 -63.5 72t-90.5 23q-45 0 -82 -21.5t-58.5 -63.5t-21.5 -99q0 -58 21.5 -99.5t58.5 -63t82 -21.5q50 0 90.5 23t63.5 71l70 -41q-32 -68 -92 -99.5t-132 -31.5
q-71 0 -128 33z" />
    <glyph glyph-name="cacute" unicode="&#x107;" horiz-adv-x="562" 
d="M51 253q0 -76 32.5 -136t89.5 -93t128 -33q72 0 132 31.5t92 99.5l-70 41q-23 -48 -63.5 -71t-90.5 -23q-45 0 -82 21.5t-58.5 63t-21.5 99.5q0 57 21.5 99t58.5 63.5t82 21.5q50 0 90.5 -23t63.5 -72l70 41q-32 68 -92 99.5t-132 31.5q-71 0 -128 -33t-89.5 -92.5
t-32.5 -135.5zM440 738h-97l-97 -136h85z" />
    <glyph glyph-name="ccaron" unicode="&#x10d;" horiz-adv-x="562" 
d="M51 253q0 -76 32.5 -136t89.5 -93t128 -33q72 0 132 31.5t92 99.5l-70 41q-23 -48 -63.5 -71t-90.5 -23q-45 0 -82 21.5t-58.5 63t-21.5 99.5q0 57 21.5 99t58.5 63.5t82 21.5q50 0 90.5 -23t63.5 -72l70 41q-32 68 -92 99.5t-132 31.5q-71 0 -128 -33t-89.5 -92.5
t-32.5 -135.5zM271 602h77l132 136h-98q-20 -21 -43 -47.5t-28 -34.5h-3q-3 8 -26.5 34.5t-43.5 47.5h-99z" />
    <glyph glyph-name="ccedilla" unicode="&#xe7;" horiz-adv-x="562" 
d="M391.5 92q40.5 23 63.5 71l70 -41q-28 -60 -78.5 -91.5t-112.5 -37.5l17 -16q38 -34 38 -75q0 -32 -25 -53t-71 -21h-72v75h56q14 0 22.5 7t8.5 18q0 18 -19 38l-27 28q-61 8 -109 43t-75 91t-27 125q0 76 32.5 135.5t89.5 92.5t128 33q72 0 132 -31.5t92 -99.5l-70 -41
q-23 49 -63.5 72t-90.5 23q-45 0 -82 -21.5t-58.5 -63.5t-21.5 -99q0 -58 21.5 -99.5t58.5 -63t82 -21.5q50 0 90.5 23z" />
    <glyph glyph-name="ccircumflex" unicode="&#x109;" horiz-adv-x="562" 
d="M51 253q0 -76 32.5 -136t89.5 -93t128 -33q72 0 132 31.5t92 99.5l-70 41q-23 -48 -63.5 -71t-90.5 -23q-45 0 -82 21.5t-58.5 63t-21.5 99.5q0 57 21.5 99t58.5 63.5t82 21.5q50 0 90.5 -23t63.5 -72l70 41q-32 68 -92 99.5t-132 31.5q-71 0 -128 -33t-89.5 -92.5
t-32.5 -135.5zM140 602h98q20 21 43 47.5t27 34.5h3q4 -8 27.5 -34.5t43.5 -47.5h98l-132 136h-76z" />
    <glyph glyph-name="cdotaccent" unicode="&#x10b;" horiz-adv-x="562" 
d="M51 253q0 -76 32.5 -136t89.5 -93t128 -33q72 0 132 31.5t92 99.5l-70 41q-23 -48 -63.5 -71t-90.5 -23q-45 0 -82 21.5t-58.5 63t-21.5 99.5q0 57 21.5 99t58.5 63.5t82 21.5q50 0 90.5 -23t63.5 -72l70 41q-32 68 -92 99.5t-132 31.5q-71 0 -128 -33t-89.5 -92.5
t-32.5 -135.5zM249 682q0 -27 17 -43.5t43 -16.5q27 0 44.5 16.5t17.5 43.5q0 25 -18 42t-44 17t-43 -17t-17 -42z" />
    <glyph glyph-name="d" unicode="d" horiz-adv-x="623" 
d="M461 750h86v-750h-86v95q-27 -48 -71.5 -76t-104.5 -28q-66 0 -119.5 33t-84 93t-30.5 136t31 135.5t84 92.5t119 33q61 0 105 -28t71 -77v341zM418.5 118q44.5 49 44.5 135q0 85 -45 134t-117 49q-73 0 -118 -49t-45 -134t45 -134.5t118 -49.5t117.5 49z" />
    <glyph glyph-name="eth" unicode="&#xf0;" horiz-adv-x="599" 
d="M497 410q51 -81 51 -169q0 -71 -32 -128t-89 -90t-127 -33t-127 33t-89.5 90.5t-32.5 128.5q0 70 30.5 127t84.5 89.5t121 32.5q41 0 78 -17l-59 90h-163v66h121l-78 120h103l73 -120h153v-66h-112zM383 91q37 22 58 61t21 90q0 50 -21 89t-58 61t-83 22t-83 -22t-58 -61
t-21 -89q0 -51 21 -90t58 -61t83 -22t83 22z" />
    <glyph glyph-name="dcaron" unicode="&#x10f;" horiz-adv-x="661" 
d="M461 750v-341q-27 49 -71 77t-105 28q-66 0 -119 -33t-84 -92.5t-31 -135.5t30.5 -136t84 -93t119.5 -33q60 0 104.5 28t71.5 76v-95h86v750h-86zM463 253q0 -86 -44.5 -135t-117.5 -49t-118 49.5t-45 134.5t45 134t118 49q72 0 117 -49t45 -134zM605 547h54l23 105v98
h-77v-203z" />
    <glyph glyph-name="dcroat" unicode="&#x111;" horiz-adv-x="622" 
d="M615 644v-68h-68v-576h-86v95q-27 -48 -71.5 -76t-104.5 -28q-66 0 -119.5 33t-84 93t-30.5 136t31 135.5t84 92.5t119 33q61 0 105 -28t71 -77v167h-127v68h127v106h86v-106h68zM418.5 118q44.5 49 44.5 135q0 85 -45 134t-117 49q-73 0 -118 -49t-45 -134t45 -134.5
t118 -49.5t117.5 49z" />
    <glyph glyph-name="uni1E0D" unicode="&#x1e0d;" horiz-adv-x="623" 
d="M461 750v-341q-27 49 -71 77t-105 28q-66 0 -119 -33t-84 -92.5t-31 -135.5t30.5 -136t84 -93t119.5 -33q60 0 104.5 28t71.5 76v-95h86v750h-86zM463 253q0 -86 -44.5 -135t-117.5 -49t-118 49.5t-45 134.5t45 134t118 49q72 0 117 -49t45 -134zM258 -122
q0 -26 17 -42.5t43 -16.5q27 0 44.5 16.5t17.5 42.5t-18 43t-44 17t-43 -17t-17 -43z" />
    <glyph glyph-name="uni1E0F" unicode="&#x1e0f;" horiz-adv-x="623" 
d="M461 750v-341q-27 49 -71 77t-105 28q-66 0 -119 -33t-84 -92.5t-31 -135.5t30.5 -136t84 -93t119.5 -33q60 0 104.5 28t71.5 76v-95h86v750h-86zM463 253q0 -86 -44.5 -135t-117.5 -49t-118 49.5t-45 134.5t45 134t118 49q72 0 117 -49t45 -134zM475 -142v72h-313v-72
h313z" />
    <glyph glyph-name="uni01F3" unicode="&#x1f3;" horiz-adv-x="1079" 
d="M461 750v-341q-27 49 -71 77t-105 28q-66 0 -119 -33t-84 -92.5t-31 -135.5t30.5 -136t84 -93t119.5 -33q60 0 104.5 28t71.5 76v-95h86v750h-86zM463 253q0 -86 -44.5 -135t-117.5 -49t-118 49.5t-45 134.5t45 134t118 49q72 0 117 -49t45 -134zM782 129l247 312v64
h-392v-76h212q64 0 81 8l1 -3q-14 -8 -56 -58l-250 -314v-62h410v76h-227q-63 0 -80 -8l-1 3q15 9 55 58z" />
    <glyph glyph-name="uni01C6" unicode="&#x1c6;" horiz-adv-x="1079" 
d="M461 750v-341q-27 49 -71 77t-105 28q-66 0 -119 -33t-84 -92.5t-31 -135.5t30.5 -136t84 -93t119.5 -33q60 0 104.5 28t71.5 76v-95h86v750h-86zM463 253q0 -86 -44.5 -135t-117.5 -49t-118 49.5t-45 134.5t45 134t118 49q72 0 117 -49t45 -134zM782 129l247 312v64
h-392v-76h212q64 0 81 8l1 -3q-14 -8 -56 -58l-250 -314v-62h410v76h-227q-63 0 -80 -8l-1 3q15 9 55 58zM797 602h77l132 136h-98q-20 -21 -43 -47.5t-28 -34.5h-3q-3 8 -26.5 34.5t-43.5 47.5h-99z" />
    <glyph glyph-name="e" unicode="e" horiz-adv-x="573" 
d="M523 233h-384q5 -79 49 -122.5t111 -43.5q99 0 150 72l60 -51q-38 -51 -92.5 -74.5t-119.5 -23.5q-70 0 -126.5 33t-88 93t-31.5 137q0 78 31 137.5t86 91.5t125 32q66 0 118.5 -32t82.5 -90t30 -134q0 -17 -1 -25zM191.5 403q-40.5 -37 -50.5 -104h293q-9 70 -47 105.5
t-95 35.5q-60 0 -100.5 -37z" />
    <glyph glyph-name="eacute" unicode="&#xe9;" horiz-adv-x="573" 
d="M523 233q1 8 1 25q0 76 -30 134t-82.5 90t-118.5 32q-70 0 -125 -32t-86 -91.5t-31 -137.5q0 -77 31.5 -137t88 -93t126.5 -33q65 0 119.5 23.5t92.5 74.5l-60 51q-51 -72 -150 -72q-67 0 -111 43.5t-49 122.5h384zM141 299q10 67 50.5 104t100.5 37q57 0 95 -35.5
t47 -105.5h-293zM424 738h-97l-97 -136h85z" />
    <glyph glyph-name="ebreve" unicode="&#x115;" horiz-adv-x="573" 
d="M523 233q1 8 1 25q0 76 -30 134t-82.5 90t-118.5 32q-70 0 -125 -32t-86 -91.5t-31 -137.5q0 -77 31.5 -137t88 -93t126.5 -33q65 0 119.5 23.5t92.5 74.5l-60 51q-51 -72 -150 -72q-67 0 -111 43.5t-49 122.5h384zM141 299q10 67 50.5 104t100.5 37q57 0 95 -35.5
t47 -105.5h-293zM135 738q2 -65 46 -102.5t111 -37.5t111 37.5t46 102.5h-77q-1 -36 -22.5 -55t-57.5 -19t-57 18.5t-22 55.5h-78z" />
    <glyph glyph-name="ecaron" unicode="&#x11b;" horiz-adv-x="573" 
d="M523 233q1 8 1 25q0 76 -30 134t-82.5 90t-118.5 32q-70 0 -125 -32t-86 -91.5t-31 -137.5q0 -77 31.5 -137t88 -93t126.5 -33q65 0 119.5 23.5t92.5 74.5l-60 51q-51 -72 -150 -72q-67 0 -111 43.5t-49 122.5h384zM141 299q10 67 50.5 104t100.5 37q57 0 95 -35.5
t47 -105.5h-293zM254 602h77l132 136h-98q-20 -21 -43 -47.5t-28 -34.5h-3q-3 8 -26.5 34.5t-43.5 47.5h-99z" />
    <glyph glyph-name="ecircumflex" unicode="&#xea;" horiz-adv-x="573" 
d="M523 233q1 8 1 25q0 76 -30 134t-82.5 90t-118.5 32q-70 0 -125 -32t-86 -91.5t-31 -137.5q0 -77 31.5 -137t88 -93t126.5 -33q65 0 119.5 23.5t92.5 74.5l-60 51q-51 -72 -150 -72q-67 0 -111 43.5t-49 122.5h384zM141 299q10 67 50.5 104t100.5 37q57 0 95 -35.5
t47 -105.5h-293zM123 602h98q20 21 43 47.5t27 34.5h3q4 -8 27.5 -34.5t43.5 -47.5h98l-132 136h-76z" />
    <glyph glyph-name="uni1EBF" unicode="&#x1ebf;" horiz-adv-x="573" 
d="M523 233q1 8 1 25q0 76 -30 134t-82.5 90t-118.5 32q-70 0 -125 -32t-86 -91.5t-31 -137.5q0 -77 31.5 -137t88 -93t126.5 -33q65 0 119.5 23.5t92.5 74.5l-60 51q-51 -72 -150 -72q-67 0 -111 43.5t-49 122.5h384zM141 299q10 67 50.5 104t100.5 37q57 0 95 -35.5
t47 -105.5h-293zM123 587h99q20 21 42.5 47.5t27.5 34.5h3q3 -7 27 -34t44 -48h98l-132 136h-77zM567 804h-95l-64 -113h81z" />
    <glyph glyph-name="uni1EC7" unicode="&#x1ec7;" horiz-adv-x="573" 
d="M523 233q1 8 1 25q0 76 -30 134t-82.5 90t-118.5 32q-70 0 -125 -32t-86 -91.5t-31 -137.5q0 -77 31.5 -137t88 -93t126.5 -33q65 0 119.5 23.5t92.5 74.5l-60 51q-51 -72 -150 -72q-67 0 -111 43.5t-49 122.5h384zM141 299q10 67 50.5 104t100.5 37q57 0 95 -35.5
t47 -105.5h-293zM123 602h98q20 21 43 47.5t27 34.5h3q4 -8 27.5 -34.5t43.5 -47.5h98l-132 136h-76zM227 -122q0 -26 17 -42.5t43 -16.5q27 0 44.5 16.5t17.5 42.5t-18 43t-44 17t-43 -17t-17 -43z" />
    <glyph glyph-name="uni1EC1" unicode="&#x1ec1;" horiz-adv-x="573" 
d="M523 233q1 8 1 25q0 76 -30 134t-82.5 90t-118.5 32q-70 0 -125 -32t-86 -91.5t-31 -137.5q0 -77 31.5 -137t88 -93t126.5 -33q65 0 119.5 23.5t92.5 74.5l-60 51q-51 -72 -150 -72q-67 0 -111 43.5t-49 122.5h384zM141 299q10 67 50.5 104t100.5 37q57 0 95 -35.5
t47 -105.5h-293zM122 587h99q20 21 42.5 47.5t27.5 34.5h3q3 -7 27 -34t44 -48h98l-132 136h-77zM506 691l-65 113h-94l78 -113h81z" />
    <glyph glyph-name="uni1EC3" unicode="&#x1ec3;" horiz-adv-x="573" 
d="M523 233q1 8 1 25q0 76 -30 134t-82.5 90t-118.5 32q-70 0 -125 -32t-86 -91.5t-31 -137.5q0 -77 31.5 -137t88 -93t126.5 -33q65 0 119.5 23.5t92.5 74.5l-60 51q-51 -72 -150 -72q-67 0 -111 43.5t-49 122.5h384zM141 299q10 67 50.5 104t100.5 37q57 0 95 -35.5
t47 -105.5h-293zM122 587h99q20 21 42.5 47.5t27.5 34.5h3q3 -7 27 -34t44 -48h98l-132 136h-77zM395 698h74q37 43 37 82q0 33 -26.5 56t-69.5 23q-28 0 -53 -11.5t-41 -33.5l45 -45q9 10 20.5 16.5t22.5 6.5q13 0 20.5 -7t7.5 -18q0 -22 -37 -69z" />
    <glyph glyph-name="uni1EC5" unicode="&#x1ec5;" horiz-adv-x="573" 
d="M523 233q1 8 1 25q0 76 -30 134t-82.5 90t-118.5 32q-70 0 -125 -32t-86 -91.5t-31 -137.5q0 -77 31.5 -137t88 -93t126.5 -33q65 0 119.5 23.5t92.5 74.5l-60 51q-51 -72 -150 -72q-67 0 -111 43.5t-49 122.5h384zM141 299q10 67 50.5 104t100.5 37q57 0 95 -35.5
t47 -105.5h-293zM274 790q22 -13 40 -20t44 -7q39 0 68.5 27.5t29.5 78.5h-73q0 -19 -8.5 -29t-21.5 -10q-9 0 -17.5 4t-21.5 12q-19 13 -37.5 20.5t-45.5 7.5q-40 0 -69 -28t-29 -79h72q0 20 8.5 29.5t22.5 9.5q9 0 17 -4t21 -12zM122 587h99q19 21 42 47.5t28 34.5h3
q5 -11 70 -82h99l-132 136h-77z" />
    <glyph glyph-name="edieresis" unicode="&#xeb;" horiz-adv-x="573" 
d="M523 233q1 8 1 25q0 76 -30 134t-82.5 90t-118.5 32q-70 0 -125 -32t-86 -91.5t-31 -137.5q0 -77 31.5 -137t88 -93t126.5 -33q65 0 119.5 23.5t92.5 74.5l-60 51q-51 -72 -150 -72q-67 0 -111 43.5t-49 122.5h384zM141 299q10 67 50.5 104t100.5 37q57 0 95 -35.5
t47 -105.5h-293zM124 677q0 -25 16 -40t40 -15t40 15t16 40t-16 40t-40 15t-40 -15t-16 -40zM348 677q0 -25 16 -40t40 -15t40 15t16 40t-16 40t-40 15t-40 -15t-16 -40z" />
    <glyph glyph-name="edotaccent" unicode="&#x117;" horiz-adv-x="573" 
d="M523 233q1 8 1 25q0 76 -30 134t-82.5 90t-118.5 32q-70 0 -125 -32t-86 -91.5t-31 -137.5q0 -77 31.5 -137t88 -93t126.5 -33q65 0 119.5 23.5t92.5 74.5l-60 51q-51 -72 -150 -72q-67 0 -111 43.5t-49 122.5h384zM141 299q10 67 50.5 104t100.5 37q57 0 95 -35.5
t47 -105.5h-293zM233 682q0 -27 17 -43.5t43 -16.5q27 0 44.5 16.5t17.5 43.5q0 25 -18 42t-44 17t-43 -17t-17 -42z" />
    <glyph glyph-name="uni1EB9" unicode="&#x1eb9;" horiz-adv-x="573" 
d="M523 233q1 8 1 25q0 76 -30 134t-82.5 90t-118.5 32q-70 0 -125 -32t-86 -91.5t-31 -137.5q0 -77 31.5 -137t88 -93t126.5 -33q65 0 119.5 23.5t92.5 74.5l-60 51q-51 -72 -150 -72q-67 0 -111 43.5t-49 122.5h384zM141 299q10 67 50.5 104t100.5 37q57 0 95 -35.5
t47 -105.5h-293zM227 -122q0 -26 17 -42.5t43 -16.5q27 0 44.5 16.5t17.5 42.5t-18 43t-44 17t-43 -17t-17 -43z" />
    <glyph glyph-name="egrave" unicode="&#xe8;" horiz-adv-x="573" 
d="M523 233q1 8 1 25q0 76 -30 134t-82.5 90t-118.5 32q-70 0 -125 -32t-86 -91.5t-31 -137.5q0 -77 31.5 -137t88 -93t126.5 -33q65 0 119.5 23.5t92.5 74.5l-60 51q-51 -72 -150 -72q-67 0 -111 43.5t-49 122.5h384zM141 299q10 67 50.5 104t100.5 37q57 0 95 -35.5
t47 -105.5h-293zM355 602l-97 136h-97l109 -136h85z" />
    <glyph glyph-name="uni1EBB" unicode="&#x1ebb;" horiz-adv-x="573" 
d="M523 233q1 8 1 25q0 76 -30 134t-82.5 90t-118.5 32q-70 0 -125 -32t-86 -91.5t-31 -137.5q0 -77 31.5 -137t88 -93t126.5 -33q65 0 119.5 23.5t92.5 74.5l-60 51q-51 -72 -150 -72q-67 0 -111 43.5t-49 122.5h384zM141 299q10 67 50.5 104t100.5 37q57 0 95 -35.5
t47 -105.5h-293zM276 597h74q37 43 37 82q0 33 -26.5 56t-69.5 23q-28 0 -52.5 -11.5t-41.5 -33.5l45 -45q10 10 21.5 16.5t21.5 6.5q13 0 20.5 -7t7.5 -18q0 -22 -37 -69z" />
    <glyph glyph-name="emacron" unicode="&#x113;" horiz-adv-x="573" 
d="M523 233q1 8 1 25q0 76 -30 134t-82.5 90t-118.5 32q-70 0 -125 -32t-86 -91.5t-31 -137.5q0 -77 31.5 -137t88 -93t126.5 -33q65 0 119.5 23.5t92.5 74.5l-60 51q-51 -72 -150 -72q-67 0 -111 43.5t-49 122.5h384zM141 299q10 67 50.5 104t100.5 37q57 0 95 -35.5
t47 -105.5h-293zM449 636v72h-313v-72h313z" />
    <glyph glyph-name="eogonek" unicode="&#x119;" horiz-adv-x="573" 
d="M523 233h-384q5 -79 49 -122.5t111 -43.5q99 0 150 72l60 -51q-25 -32 -56 -54l-39 -52q-17 -22 -23 -33.5t-6 -20.5q0 -11 8 -18t23 -7h35v-75h-52q-45 0 -70.5 21t-25.5 52q0 19 11 38.5t37 49.5l5 6q-32 -5 -59 -5q-70 0 -126.5 33t-88 93t-31.5 137q0 78 31 137.5
t86 91.5t125 32q66 0 118.5 -32t82.5 -90t30 -134q0 -17 -1 -25zM191.5 403q-40.5 -37 -50.5 -104h293q-9 70 -47 105.5t-95 35.5q-60 0 -100.5 -37z" />
    <glyph glyph-name="uni1EBD" unicode="&#x1ebd;" horiz-adv-x="573" 
d="M523 233q1 8 1 25q0 76 -30 134t-82.5 90t-118.5 32q-70 0 -125 -32t-86 -91.5t-31 -137.5q0 -77 31.5 -137t88 -93t126.5 -33q65 0 119.5 23.5t92.5 74.5l-60 51q-51 -72 -150 -72q-67 0 -111 43.5t-49 122.5h384zM141 299q10 67 50.5 104t100.5 37q57 0 95 -35.5
t47 -105.5h-293zM275 641q22 -17 40 -26.5t44 -9.5q41 0 70.5 30.5t29.5 91.5h-73q0 -52 -30 -52q-9 0 -17 5t-22 16q-19 17 -38 27t-46 10q-41 0 -70.5 -31t-29.5 -92h73q0 52 31 52q9 0 17 -5t21 -16z" />
    <glyph glyph-name="uni0259" unicode="&#x259;" horiz-adv-x="573" 
d="M402.5 482q56.5 -33 88 -93t31.5 -137q0 -78 -31 -137.5t-86 -91.5t-125 -32q-66 0 -118.5 32t-82.5 90t-30 134q0 17 1 25h384q-5 79 -49 122.5t-111 43.5q-99 0 -150 -72l-60 51q38 51 92.5 74.5t119.5 23.5q70 0 126.5 -33zM382 102q40 37 50 104h-293
q9 -70 47 -105.5t95 -35.5q61 0 101 37z" />
    <glyph glyph-name="f" unicode="f" horiz-adv-x="352" 
d="M272 682q-68 0 -68 -78v-99h119v-73h-119v-432h-86v432h-84v73h84v104q0 67 37.5 108t107.5 41h60v-76h-51z" />
    <glyph glyph-name="florin" unicode="&#x192;" horiz-adv-x="352" 
d="M272 682q-68 0 -68 -78v-99h119v-73h-119v-499q0 -71 -39.5 -110.5t-104.5 -39.5q-71 0 -115 50l46 57q27 -32 65 -32q28 0 45 19t17 55v500h-84v73h84v104q0 67 37.5 108t107.5 41h60v-76h-51z" />
    <glyph glyph-name="g" unicode="g" horiz-adv-x="613" 
d="M452 505h86v-482q0 -76 -32 -130t-88.5 -82t-129.5 -28q-64 0 -120 26.5t-91 76.5l59 53q28 -37 67.5 -58t85.5 -21q71 0 117 41.5t46 117.5v97q-26 -48 -69 -75.5t-102 -27.5q-65 0 -117.5 32t-82 89.5t-29.5 129.5t29.5 129t82 89t117.5 32q59 0 102 -27.5t69 -74.5v93
zM378 113.5q36 22.5 56 62t20 88.5t-20 88.5t-56 62t-81 22.5q-70 0 -114 -47.5t-44 -125.5t44 -125.5t114 -47.5q45 0 81 22.5z" />
    <glyph glyph-name="gbreve" unicode="&#x11f;" horiz-adv-x="613" 
d="M452 505v-93q-26 47 -69 74.5t-102 27.5q-65 0 -117.5 -32t-82 -89t-29.5 -129t29.5 -129.5t82 -89.5t117.5 -32q59 0 102 27.5t69 75.5v-97q0 -76 -46 -117.5t-117 -41.5q-46 0 -85.5 21t-67.5 58l-59 -53q35 -50 91 -76.5t120 -26.5q73 0 129.5 28t88.5 82t32 130v482
h-86zM454 264q0 -49 -20 -88.5t-56 -62t-81 -22.5q-70 0 -114 47.5t-44 125.5t44 125.5t114 47.5q45 0 81 -22.5t56 -62t20 -88.5zM147 738q2 -65 46 -102.5t111 -37.5t111 37.5t46 102.5h-77q-1 -36 -22.5 -55t-57.5 -19t-57 18.5t-22 55.5h-78z" />
    <glyph glyph-name="gcaron" unicode="&#x1e7;" horiz-adv-x="613" 
d="M452 505v-93q-26 47 -69 74.5t-102 27.5q-65 0 -117.5 -32t-82 -89t-29.5 -129t29.5 -129.5t82 -89.5t117.5 -32q59 0 102 27.5t69 75.5v-97q0 -76 -46 -117.5t-117 -41.5q-46 0 -85.5 21t-67.5 58l-59 -53q35 -50 91 -76.5t120 -26.5q73 0 129.5 28t88.5 82t32 130v482
h-86zM454 264q0 -49 -20 -88.5t-56 -62t-81 -22.5q-70 0 -114 47.5t-44 125.5t44 125.5t114 47.5q45 0 81 -22.5t56 -62t20 -88.5zM266 602h77l132 136h-98q-20 -21 -43 -47.5t-28 -34.5h-3q-3 8 -26.5 34.5t-43.5 47.5h-99z" />
    <glyph glyph-name="gcircumflex" unicode="&#x11d;" horiz-adv-x="613" 
d="M452 505v-93q-26 47 -69 74.5t-102 27.5q-65 0 -117.5 -32t-82 -89t-29.5 -129t29.5 -129.5t82 -89.5t117.5 -32q59 0 102 27.5t69 75.5v-97q0 -76 -46 -117.5t-117 -41.5q-46 0 -85.5 21t-67.5 58l-59 -53q35 -50 91 -76.5t120 -26.5q73 0 129.5 28t88.5 82t32 130v482
h-86zM454 264q0 -49 -20 -88.5t-56 -62t-81 -22.5q-70 0 -114 47.5t-44 125.5t44 125.5t114 47.5q45 0 81 -22.5t56 -62t20 -88.5zM134 602h98q20 21 43 47.5t27 34.5h3q4 -8 27.5 -34.5t43.5 -47.5h98l-132 136h-76z" />
    <glyph glyph-name="uni0123" unicode="&#x123;" horiz-adv-x="613" 
d="M452 505v-93q-26 47 -69 74.5t-102 27.5q-65 0 -117.5 -32t-82 -89t-29.5 -129t29.5 -129.5t82 -89.5t117.5 -32q59 0 102 27.5t69 75.5v-97q0 -76 -46 -117.5t-117 -41.5q-46 0 -85.5 21t-67.5 58l-59 -53q35 -50 91 -76.5t120 -26.5q73 0 129.5 28t88.5 82t32 130v482
h-86zM454 264q0 -49 -20 -88.5t-56 -62t-81 -22.5q-70 0 -114 47.5t-44 125.5t44 125.5t114 47.5q45 0 81 -22.5t56 -62t20 -88.5zM321 690l44 62l-46 28l-53 -79q-13 -20 -17.5 -32.5t-4.5 -24.5q0 -22 17 -36t43 -14q25 0 41.5 14t16.5 36q0 17 -11 29.5t-30 16.5z" />
    <glyph glyph-name="gdotaccent" unicode="&#x121;" horiz-adv-x="613" 
d="M452 505v-93q-26 47 -69 74.5t-102 27.5q-65 0 -117.5 -32t-82 -89t-29.5 -129t29.5 -129.5t82 -89.5t117.5 -32q59 0 102 27.5t69 75.5v-97q0 -76 -46 -117.5t-117 -41.5q-46 0 -85.5 21t-67.5 58l-59 -53q35 -50 91 -76.5t120 -26.5q73 0 129.5 28t88.5 82t32 130v482
h-86zM454 264q0 -49 -20 -88.5t-56 -62t-81 -22.5q-70 0 -114 47.5t-44 125.5t44 125.5t114 47.5q45 0 81 -22.5t56 -62t20 -88.5zM244 682q0 -27 17 -43.5t43 -16.5q27 0 44.5 16.5t17.5 43.5q0 25 -18 42t-44 17t-43 -17t-17 -42z" />
    <glyph glyph-name="h" unicode="h" horiz-adv-x="575" 
d="M413 489.5q43 -24.5 67 -69.5t24 -104v-316h-86v303q0 61 -33.5 97.5t-87.5 36.5q-60 0 -98 -37.5t-38 -99.5v-300h-86v750h86v-324q24 45 65 66.5t89 21.5q55 0 98 -24.5z" />
    <glyph glyph-name="hbar" unicode="&#x127;" horiz-adv-x="575" 
d="M413 489.5q43 -24.5 67 -69.5t24 -104v-316h-86v303q0 61 -33.5 97.5t-87.5 36.5q-60 0 -98 -37.5t-38 -99.5v-300h-86v576h-69v68h69v106h86v-106h126v-68h-126v-150q24 45 65 66.5t89 21.5q55 0 98 -24.5z" />
    <glyph glyph-name="uni1E2B" unicode="&#x1e2b;" horiz-adv-x="575" 
d="M504 316q0 59 -24 104t-67 69.5t-98 24.5q-48 0 -89 -21.5t-65 -66.5v324h-86v-750h86v300q0 62 38 99.5t98 37.5q54 0 87.5 -36.5t33.5 -97.5v-303h86v316zM133 -67q2 -65 46 -102.5t111 -37.5t111 37.5t46 102.5h-77q-1 -36 -22.5 -55t-57.5 -19t-57 18.5t-22 55.5h-78
z" />
    <glyph glyph-name="uni1E29" unicode="&#x1e29;" horiz-adv-x="575" 
d="M413 489.5q43 -24.5 67 -69.5t24 -104v-316h-86v303q0 61 -33.5 97.5t-87.5 36.5q-60 0 -98 -37.5t-38 -99.5v-300h-15l25 -23q38 -34 38 -75q0 -32 -25 -53t-71 -21h-72v75h56q14 0 22.5 7t8.5 18q0 18 -19 38l-33 34h-1v750h86v-324q24 45 65 66.5t89 21.5
q55 0 98 -24.5z" />
    <glyph glyph-name="hcircumflex" unicode="&#x125;" horiz-adv-x="575" 
d="M504 316q0 59 -24 104t-67 69.5t-98 24.5q-48 0 -89 -21.5t-65 -66.5v324h-86v-750h86v300q0 62 38 99.5t98 37.5q54 0 87.5 -36.5t33.5 -97.5v-303h86v316zM121 837h98q20 21 43 47.5t27 34.5h3q4 -8 27.5 -34.5t43.5 -47.5h98l-132 136h-76z" />
    <glyph glyph-name="uni1E25" unicode="&#x1e25;" horiz-adv-x="575" 
d="M504 316q0 59 -24 104t-67 69.5t-98 24.5q-48 0 -89 -21.5t-65 -66.5v324h-86v-750h86v300q0 62 38 99.5t98 37.5q54 0 87.5 -36.5t33.5 -97.5v-303h86v316zM230 -122q0 -26 17 -42.5t43 -16.5q27 0 44.5 16.5t17.5 42.5t-18 43t-44 17t-43 -17t-17 -43z" />
    <glyph glyph-name="uni1E96" unicode="&#x1e96;" horiz-adv-x="575" 
d="M504 316q0 59 -24 104t-67 69.5t-98 24.5q-48 0 -89 -21.5t-65 -66.5v324h-86v-750h86v300q0 62 38 99.5t98 37.5q54 0 87.5 -36.5t33.5 -97.5v-303h86v316zM447 -142v72h-313v-72h313z" />
    <glyph glyph-name="i" unicode="i" horiz-adv-x="237" 
d="M75 505v-505h86v505h-86zM58 682q0 -27 17 -43.5t43 -16.5q27 0 44.5 16.5t17.5 43.5q0 25 -18 42t-44 17t-43 -17t-17 -42z" />
    <glyph glyph-name="dotlessi" unicode="&#x131;" horiz-adv-x="237" 
d="M75 505h86v-505h-86v505z" />
    <glyph glyph-name="iacute" unicode="&#xed;" horiz-adv-x="237" 
d="M75 505v-505h86v505h-86zM249 738h-97l-97 -136h85z" />
    <glyph glyph-name="ibreve" unicode="&#x12d;" horiz-adv-x="237" 
d="M75 505v-505h86v505h-86zM-39 738q2 -65 46 -102.5t111 -37.5t111 37.5t46 102.5h-77q-1 -36 -22.5 -55t-57.5 -19t-57 18.5t-22 55.5h-78z" />
    <glyph glyph-name="uni01D0" unicode="&#x1d0;" horiz-adv-x="237" 
d="M75 505v-505h86v505h-86zM80 602h77l132 136h-98q-20 -21 -43 -47.5t-28 -34.5h-3q-3 8 -26.5 34.5t-43.5 47.5h-99z" />
    <glyph glyph-name="icircumflex" unicode="&#xee;" horiz-adv-x="237" 
d="M75 505v-505h86v505h-86zM-51 602h98q20 21 43 47.5t27 34.5h3q4 -8 27.5 -34.5t43.5 -47.5h98l-132 136h-76z" />
    <glyph glyph-name="idieresis" unicode="&#xef;" horiz-adv-x="237" 
d="M-12 637q-16 15 -16 40t16 40t40 15t39.5 -15t15.5 -40t-15.5 -40t-39.5 -15t-40 15zM169 637q-16 15 -16 40t16 40t40 15t40 -15t16 -40t-16 -40t-40 -15t-40 15zM75 505h86v-505h-86v505z" />
    <glyph glyph-name="uni1ECB" unicode="&#x1ecb;" horiz-adv-x="237" 
d="M75 505v-505h86v505h-86zM58 682q0 -27 17 -43.5t43 -16.5q27 0 44.5 16.5t17.5 43.5q0 25 -18 42t-44 17t-43 -17t-17 -42zM59 -122q0 -26 17 -42.5t43 -16.5q27 0 44.5 16.5t17.5 42.5t-18 43t-44 17t-43 -17t-17 -43z" />
    <glyph glyph-name="igrave" unicode="&#xec;" horiz-adv-x="237" 
d="M75 505v-505h86v505h-86zM181 602l-97 136h-97l109 -136h85z" />
    <glyph glyph-name="uni1EC9" unicode="&#x1ec9;" horiz-adv-x="237" 
d="M75 505v-505h86v505h-86zM102 597h74q37 43 37 82q0 33 -26.5 56t-69.5 23q-28 0 -52.5 -11.5t-41.5 -33.5l45 -45q10 10 21.5 16.5t21.5 6.5q13 0 20.5 -7t7.5 -18q0 -22 -37 -69z" />
    <glyph glyph-name="imacron" unicode="&#x12b;" horiz-adv-x="237" 
d="M75 505v-505h86v505h-86zM275 636v72h-313v-72h313z" />
    <glyph glyph-name="iogonek" unicode="&#x12f;" horiz-adv-x="237" 
d="M75 638.5q-17 16.5 -17 43.5q0 25 17 42t43 17t44 -17t18 -42q0 -27 -17.5 -43.5t-44.5 -16.5q-26 0 -43 16.5zM118 -90q8 -7 23 -7h35v-75h-52q-45 0 -70.5 21t-25.5 53q0 41 38 75l26 23h-17v505h86v-505l-32 -34q-19 -20 -19 -38q0 -11 8 -18z" />
    <glyph glyph-name="itilde" unicode="&#x129;" horiz-adv-x="237" 
d="M75 505v-505h86v505h-86zM101 641q22 -17 40 -26.5t44 -9.5q41 0 70.5 30.5t29.5 91.5h-73q0 -52 -30 -52q-9 0 -17 5t-22 16q-19 17 -38 27t-46 10q-41 0 -70.5 -31t-29.5 -92h73q0 52 31 52q9 0 17 -5t21 -16z" />
    <glyph glyph-name="j" unicode="j" horiz-adv-x="237" 
d="M161 -72v577h-86v-572q0 -64 -47 -64h-17v-81h28q58 0 90 36t32 104zM58 682q0 -27 17 -43.5t43 -16.5q27 0 44.5 16.5t17.5 43.5q0 25 -18 42t-44 17t-43 -17t-17 -42z" />
    <glyph glyph-name="uni0237" unicode="&#x237;" horiz-adv-x="237" 
d="M161 -72q0 -68 -32 -104t-90 -36h-28v81h17q47 0 47 64v572h86v-577z" />
    <glyph glyph-name="jcircumflex" unicode="&#x135;" horiz-adv-x="237" 
d="M161 -72v577h-86v-572q0 -64 -47 -64h-17v-81h28q58 0 90 36t32 104zM-51 602h98q20 21 43 47.5t27 34.5h3q4 -8 27.5 -34.5t43.5 -47.5h98l-132 136h-76z" />
    <glyph glyph-name="k" unicode="k" horiz-adv-x="504" 
d="M254 268l239 -268h-106l-225 255v-255h-87v750h87v-473l215 228h106z" />
    <glyph glyph-name="uni0137" unicode="&#x137;" horiz-adv-x="504" 
d="M254 268l229 237h-106l-215 -228v473h-87v-750h87v255l225 -255h106zM331 -115q0 22 -17 36.5t-43 14.5q-25 0 -41.5 -14t-16.5 -36q0 -17 11.5 -29.5t31.5 -16.5l-42 -61l46 -27l50 77q21 31 21 56z" />
    <glyph glyph-name="uni1E33" unicode="&#x1e33;" horiz-adv-x="504" 
d="M254 268l229 237h-106l-215 -228v473h-87v-750h87v255l225 -255h106zM211 -122q0 -26 17 -42.5t43 -16.5q27 0 44.5 16.5t17.5 42.5t-18 43t-44 17t-43 -17t-17 -43z" />
    <glyph glyph-name="l" unicode="l" horiz-adv-x="289" 
d="M208 0q-63 0 -97 37t-34 98v615h86v-610q0 -32 13.5 -48t43.5 -16h42v-76h-54z" />
    <glyph glyph-name="lacute" unicode="&#x13a;" horiz-adv-x="289" 
d="M208 0h54v76h-42q-30 0 -43.5 16t-13.5 48v610h-86v-615q0 -61 34 -98t97 -37zM251 973h-97l-97 -136h85z" />
    <glyph glyph-name="lcaron" unicode="&#x13e;" horiz-adv-x="318" 
d="M208 0h54v76h-42q-30 0 -43.5 16t-13.5 48v610h-86v-615q0 -61 34 -98t97 -37zM220 547h54l23 105v98h-77v-203z" />
    <glyph glyph-name="uni013C" unicode="&#x13c;" horiz-adv-x="289" 
d="M208 0h54v76h-42q-30 0 -43.5 16t-13.5 48v610h-86v-615q0 -61 34 -98t97 -37zM236 -115q0 22 -17 36.5t-43 14.5q-25 0 -41.5 -14t-16.5 -36q0 -17 11.5 -29.5t31.5 -16.5l-42 -61l46 -27l50 77q21 31 21 56z" />
    <glyph glyph-name="ldot" unicode="&#x140;" horiz-adv-x="377" 
d="M208 0q-63 0 -97 37t-34 98v615h86v-610q0 -32 13.5 -48t43.5 -16h42v-76h-54zM265.5 321.5q-16.5 16.5 -16.5 41.5q0 26 16.5 42.5t42.5 16.5t43.5 -16.5t17.5 -42.5q0 -25 -17.5 -41.5t-43.5 -16.5t-42.5 16.5z" />
    <glyph glyph-name="uni1E37" unicode="&#x1e37;" horiz-adv-x="289" 
d="M208 0h54v76h-42q-30 0 -43.5 16t-13.5 48v610h-86v-615q0 -61 34 -98t97 -37zM117 -122q0 -26 17 -42.5t43 -16.5q27 0 44.5 16.5t17.5 42.5t-18 43t-44 17t-43 -17t-17 -43z" />
    <glyph glyph-name="uni1E39" unicode="&#x1e39;" horiz-adv-x="289" 
d="M208 0h54v76h-42q-30 0 -43.5 16t-13.5 48v610h-86v-615q0 -61 34 -98t97 -37zM277 871v72h-313v-72h313zM117 -122q0 -26 17 -42.5t43 -16.5q27 0 44.5 16.5t17.5 42.5t-18 43t-44 17t-43 -17t-17 -43z" />
    <glyph glyph-name="uni01C9" unicode="&#x1c9;" horiz-adv-x="486" 
d="M208 0h54v76h-42q-30 0 -43.5 16t-13.5 48v610h-86v-615q0 -61 34 -98t97 -37zM410 -72v577h-86v-572q0 -64 -47 -64h-17v-81h28q58 0 90 36t32 104zM307 682q0 -27 17 -43.5t43 -16.5q27 0 44.5 16.5t17.5 43.5q0 25 -18 42t-44 17t-43 -17t-17 -42z" />
    <glyph glyph-name="uni1E3B" unicode="&#x1e3b;" horiz-adv-x="289" 
d="M208 0h54v76h-42q-30 0 -43.5 16t-13.5 48v610h-86v-615q0 -61 34 -98t97 -37zM334 -142v72h-313v-72h313z" />
    <glyph glyph-name="lslash" unicode="&#x142;" horiz-adv-x="360" 
d="M309 76v-76h-53q-64 0 -98 37t-34 98v193l-85 -26v77l85 26v345h86v-324l94 29v-77l-94 -29v-209q0 -64 57 -64h42z" />
    <glyph glyph-name="m" unicode="m" horiz-adv-x="853" 
d="M697.5 490q40.5 -24 63 -67t22.5 -100v-323h-86v308q0 60 -29.5 94.5t-76.5 34.5q-53 0 -86 -34.5t-33 -95.5v-307h-86v308q0 61 -29 95t-77 34q-53 0 -86 -35t-33 -95v-307h-86v505h86v-74q22 42 58.5 62.5t80.5 20.5q52 0 92 -25.5t61 -70.5q21 49 62 72.5t91 23.5
q51 0 91.5 -24z" />
    <glyph glyph-name="uni1E41" unicode="&#x1e41;" horiz-adv-x="853" 
d="M783 323q0 57 -22.5 100t-63 67t-91.5 24q-50 0 -91 -23.5t-62 -72.5q-21 45 -61 70.5t-92 25.5q-44 0 -80.5 -20.5t-58.5 -62.5v74h-86v-505h86v307q0 60 33 95t86 35q48 0 77 -34t29 -95v-308h86v307q0 61 33 95.5t86 34.5q47 0 76.5 -34.5t29.5 -94.5v-308h86v323z
M381 682q0 -27 17 -43.5t43 -16.5q27 0 44.5 16.5t17.5 43.5q0 25 -18 42t-44 17t-43 -17t-17 -42z" />
    <glyph glyph-name="uni1E43" unicode="&#x1e43;" horiz-adv-x="853" 
d="M783 323q0 57 -22.5 100t-63 67t-91.5 24q-50 0 -91 -23.5t-62 -72.5q-21 45 -61 70.5t-92 25.5q-44 0 -80.5 -20.5t-58.5 -62.5v74h-86v-505h86v307q0 60 33 95t86 35q48 0 77 -34t29 -95v-308h86v307q0 61 33 95.5t86 34.5q47 0 76.5 -34.5t29.5 -94.5v-308h86v323z
M369 -122q0 -26 17 -42.5t43 -16.5q27 0 44.5 16.5t17.5 42.5t-18 43t-44 17t-43 -17t-17 -43z" />
    <glyph glyph-name="n" unicode="n" horiz-adv-x="575" 
d="M413 489.5q43 -24.5 67 -69.5t24 -104v-316h-86v303q0 61 -33.5 97.5t-87.5 36.5q-60 0 -98 -37.5t-38 -99.5v-300h-86v505h86v-79q24 45 65 66.5t89 21.5q55 0 98 -24.5z" />
    <glyph glyph-name="nacute" unicode="&#x144;" horiz-adv-x="575" 
d="M504 316q0 59 -24 104t-67 69.5t-98 24.5q-48 0 -89 -21.5t-65 -66.5v79h-86v-505h86v300q0 62 38 99.5t98 37.5q54 0 87.5 -36.5t33.5 -97.5v-303h86v316zM426 738h-97l-97 -136h85z" />
    <glyph glyph-name="ncaron" unicode="&#x148;" horiz-adv-x="575" 
d="M504 316q0 59 -24 104t-67 69.5t-98 24.5q-48 0 -89 -21.5t-65 -66.5v79h-86v-505h86v300q0 62 38 99.5t98 37.5q54 0 87.5 -36.5t33.5 -97.5v-303h86v316zM256 602h77l132 136h-98q-20 -21 -43 -47.5t-28 -34.5h-3q-3 8 -26.5 34.5t-43.5 47.5h-99z" />
    <glyph glyph-name="uni0146" unicode="&#x146;" horiz-adv-x="575" 
d="M504 316q0 59 -24 104t-67 69.5t-98 24.5q-48 0 -89 -21.5t-65 -66.5v79h-86v-505h86v300q0 62 38 99.5t98 37.5q54 0 87.5 -36.5t33.5 -97.5v-303h86v316zM349 -115q0 22 -17 36.5t-43 14.5q-25 0 -41.5 -14t-16.5 -36q0 -17 11.5 -29.5t31.5 -16.5l-42 -61l46 -27
l50 77q21 31 21 56z" />
    <glyph glyph-name="uni1E45" unicode="&#x1e45;" horiz-adv-x="575" 
d="M504 316q0 59 -24 104t-67 69.5t-98 24.5q-48 0 -89 -21.5t-65 -66.5v79h-86v-505h86v300q0 62 38 99.5t98 37.5q54 0 87.5 -36.5t33.5 -97.5v-303h86v316zM235 682q0 -27 17 -43.5t43 -16.5q27 0 44.5 16.5t17.5 43.5q0 25 -18 42t-44 17t-43 -17t-17 -42z" />
    <glyph glyph-name="uni1E47" unicode="&#x1e47;" horiz-adv-x="575" 
d="M504 316q0 59 -24 104t-67 69.5t-98 24.5q-48 0 -89 -21.5t-65 -66.5v79h-86v-505h86v300q0 62 38 99.5t98 37.5q54 0 87.5 -36.5t33.5 -97.5v-303h86v316zM230 -122q0 -26 17 -42.5t43 -16.5q27 0 44.5 16.5t17.5 42.5t-18 43t-44 17t-43 -17t-17 -43z" />
    <glyph glyph-name="eng" unicode="&#x14b;" horiz-adv-x="575" 
d="M413 489.5q43 -24.5 67 -69.5t24 -104v-388q0 -67 -32.5 -103.5t-89.5 -36.5h-28v81h17q47 0 47 64v370q0 61 -33.5 97.5t-87.5 36.5q-60 0 -98 -37.5t-38 -99.5v-300h-86v505h86v-79q24 45 65 66.5t89 21.5q55 0 98 -24.5z" />
    <glyph glyph-name="uni01CC" unicode="&#x1cc;" horiz-adv-x="772" 
d="M504 316q0 59 -24 104t-67 69.5t-98 24.5q-48 0 -89 -21.5t-65 -66.5v79h-86v-505h86v300q0 62 38 99.5t98 37.5q54 0 87.5 -36.5t33.5 -97.5v-303h86v316zM696 -72v577h-86v-572q0 -64 -47 -64h-17v-81h28q58 0 90 36t32 104zM593 682q0 -27 17 -43.5t43 -16.5
q27 0 44.5 16.5t17.5 43.5q0 25 -18 42t-44 17t-43 -17t-17 -42z" />
    <glyph glyph-name="uni1E49" unicode="&#x1e49;" horiz-adv-x="575" 
d="M504 316q0 59 -24 104t-67 69.5t-98 24.5q-48 0 -89 -21.5t-65 -66.5v79h-86v-505h86v300q0 62 38 99.5t98 37.5q54 0 87.5 -36.5t33.5 -97.5v-303h86v316zM447 -142v72h-313v-72h313z" />
    <glyph glyph-name="ntilde" unicode="&#xf1;" horiz-adv-x="575" 
d="M504 316q0 59 -24 104t-67 69.5t-98 24.5q-48 0 -89 -21.5t-65 -66.5v79h-86v-505h86v300q0 62 38 99.5t98 37.5q54 0 87.5 -36.5t33.5 -97.5v-303h86v316zM277 641q22 -17 40 -26.5t44 -9.5q41 0 70.5 30.5t29.5 91.5h-73q0 -52 -30 -52q-9 0 -17 5t-22 16
q-19 17 -38 27t-46 10q-41 0 -70.5 -31t-29.5 -92h73q0 52 31 52q9 0 17 -5t21 -16z" />
    <glyph glyph-name="o" unicode="o" horiz-adv-x="610" 
d="M175 23.5q-58 33.5 -91 93t-33 136.5q0 76 33 135.5t91 92.5t130 33t130 -33t91 -92.5t33 -135.5q0 -77 -33 -136.5t-91 -93t-130 -33.5t-130 33.5zM425.5 118q46.5 50 46.5 135q0 84 -47 133.5t-120 49.5t-119.5 -49.5t-46.5 -133.5q0 -85 46.5 -135t119.5 -50
q74 0 120.5 50z" />
    <glyph glyph-name="oacute" unicode="&#xf3;" horiz-adv-x="610" 
d="M51 253q0 -77 33 -136.5t91 -93t130 -33.5t130 33.5t91 93t33 136.5q0 76 -33 135.5t-91 92.5t-130 33t-130 -33t-91 -92.5t-33 -135.5zM472 253q0 -85 -46.5 -135t-120.5 -50q-73 0 -119.5 50t-46.5 135q0 84 46.5 133.5t119.5 49.5t120 -49.5t47 -133.5zM436 738h-97
l-97 -136h85z" />
    <glyph glyph-name="obreve" unicode="&#x14f;" horiz-adv-x="610" 
d="M51 253q0 -77 33 -136.5t91 -93t130 -33.5t130 33.5t91 93t33 136.5q0 76 -33 135.5t-91 92.5t-130 33t-130 -33t-91 -92.5t-33 -135.5zM472 253q0 -85 -46.5 -135t-120.5 -50q-73 0 -119.5 50t-46.5 135q0 84 46.5 133.5t119.5 49.5t120 -49.5t47 -133.5zM148 738
q2 -65 46 -102.5t111 -37.5t111 37.5t46 102.5h-77q-1 -36 -22.5 -55t-57.5 -19t-57 18.5t-22 55.5h-78z" />
    <glyph glyph-name="uni01D2" unicode="&#x1d2;" horiz-adv-x="610" 
d="M51 253q0 -77 33 -136.5t91 -93t130 -33.5t130 33.5t91 93t33 136.5q0 76 -33 135.5t-91 92.5t-130 33t-130 -33t-91 -92.5t-33 -135.5zM472 253q0 -85 -46.5 -135t-120.5 -50q-73 0 -119.5 50t-46.5 135q0 84 46.5 133.5t119.5 49.5t120 -49.5t47 -133.5zM267 602h77
l132 136h-98q-20 -21 -43 -47.5t-28 -34.5h-3q-3 8 -26.5 34.5t-43.5 47.5h-99z" />
    <glyph glyph-name="ocircumflex" unicode="&#xf4;" horiz-adv-x="610" 
d="M51 253q0 -77 33 -136.5t91 -93t130 -33.5t130 33.5t91 93t33 136.5q0 76 -33 135.5t-91 92.5t-130 33t-130 -33t-91 -92.5t-33 -135.5zM472 253q0 -85 -46.5 -135t-120.5 -50q-73 0 -119.5 50t-46.5 135q0 84 46.5 133.5t119.5 49.5t120 -49.5t47 -133.5zM136 602h98
q20 21 43 47.5t27 34.5h3q4 -8 27.5 -34.5t43.5 -47.5h98l-132 136h-76z" />
    <glyph glyph-name="uni1ED1" unicode="&#x1ed1;" horiz-adv-x="610" 
d="M51 253q0 -77 33 -136.5t91 -93t130 -33.5t130 33.5t91 93t33 136.5q0 76 -33 135.5t-91 92.5t-130 33t-130 -33t-91 -92.5t-33 -135.5zM472 253q0 -85 -46.5 -135t-120.5 -50q-73 0 -119.5 50t-46.5 135q0 84 46.5 133.5t119.5 49.5t120 -49.5t47 -133.5zM135 587h99
q20 21 42.5 47.5t27.5 34.5h3q3 -7 27 -34t44 -48h98l-132 136h-77zM579 804h-95l-64 -113h81z" />
    <glyph glyph-name="uni1ED9" unicode="&#x1ed9;" horiz-adv-x="610" 
d="M51 253q0 -77 33 -136.5t91 -93t130 -33.5t130 33.5t91 93t33 136.5q0 76 -33 135.5t-91 92.5t-130 33t-130 -33t-91 -92.5t-33 -135.5zM472 253q0 -85 -46.5 -135t-120.5 -50q-73 0 -119.5 50t-46.5 135q0 84 46.5 133.5t119.5 49.5t120 -49.5t47 -133.5zM136 602h98
q20 21 43 47.5t27 34.5h3q4 -8 27.5 -34.5t43.5 -47.5h98l-132 136h-76zM245 -122q0 -26 17 -42.5t43 -16.5q27 0 44.5 16.5t17.5 42.5t-18 43t-44 17t-43 -17t-17 -43z" />
    <glyph glyph-name="uni1ED3" unicode="&#x1ed3;" horiz-adv-x="610" 
d="M51 253q0 -77 33 -136.5t91 -93t130 -33.5t130 33.5t91 93t33 136.5q0 76 -33 135.5t-91 92.5t-130 33t-130 -33t-91 -92.5t-33 -135.5zM472 253q0 -85 -46.5 -135t-120.5 -50q-73 0 -119.5 50t-46.5 135q0 84 46.5 133.5t119.5 49.5t120 -49.5t47 -133.5zM135 587h99
q20 21 42.5 47.5t27.5 34.5h3q3 -7 27 -34t44 -48h98l-132 136h-77zM519 691l-65 113h-94l78 -113h81z" />
    <glyph glyph-name="uni1ED5" unicode="&#x1ed5;" horiz-adv-x="610" 
d="M51 253q0 -77 33 -136.5t91 -93t130 -33.5t130 33.5t91 93t33 136.5q0 76 -33 135.5t-91 92.5t-130 33t-130 -33t-91 -92.5t-33 -135.5zM472 253q0 -85 -46.5 -135t-120.5 -50q-73 0 -119.5 50t-46.5 135q0 84 46.5 133.5t119.5 49.5t120 -49.5t47 -133.5zM135 587h99
q20 21 42.5 47.5t27.5 34.5h3q3 -7 27 -34t44 -48h98l-132 136h-77zM408 698h74q37 43 37 82q0 33 -26.5 56t-69.5 23q-28 0 -53 -11.5t-41 -33.5l45 -45q9 10 20.5 16.5t22.5 6.5q13 0 20.5 -7t7.5 -18q0 -22 -37 -69z" />
    <glyph glyph-name="uni1ED7" unicode="&#x1ed7;" horiz-adv-x="610" 
d="M51 253q0 -77 33 -136.5t91 -93t130 -33.5t130 33.5t91 93t33 136.5q0 76 -33 135.5t-91 92.5t-130 33t-130 -33t-91 -92.5t-33 -135.5zM472 253q0 -85 -46.5 -135t-120.5 -50q-73 0 -119.5 50t-46.5 135q0 84 46.5 133.5t119.5 49.5t120 -49.5t47 -133.5zM287 790
q22 -13 40 -20t44 -7q39 0 68.5 27.5t29.5 78.5h-73q0 -19 -8.5 -29t-21.5 -10q-9 0 -17.5 4t-21.5 12q-19 13 -37.5 20.5t-45.5 7.5q-40 0 -69 -28t-29 -79h72q0 20 8.5 29.5t22.5 9.5q9 0 17 -4t21 -12zM135 587h99q19 21 42 47.5t28 34.5h3q5 -11 70 -82h99l-132 136h-77
z" />
    <glyph glyph-name="odieresis" unicode="&#xf6;" horiz-adv-x="610" 
d="M51 253q0 -77 33 -136.5t91 -93t130 -33.5t130 33.5t91 93t33 136.5q0 76 -33 135.5t-91 92.5t-130 33t-130 -33t-91 -92.5t-33 -135.5zM472 253q0 -85 -46.5 -135t-120.5 -50q-73 0 -119.5 50t-46.5 135q0 84 46.5 133.5t119.5 49.5t120 -49.5t47 -133.5zM137 677
q0 -25 16 -40t40 -15t40 15t16 40t-16 40t-40 15t-40 -15t-16 -40zM361 677q0 -25 16 -40t40 -15t40 15t16 40t-16 40t-40 15t-40 -15t-16 -40z" />
    <glyph glyph-name="uni1ECD" unicode="&#x1ecd;" horiz-adv-x="610" 
d="M51 253q0 -77 33 -136.5t91 -93t130 -33.5t130 33.5t91 93t33 136.5q0 76 -33 135.5t-91 92.5t-130 33t-130 -33t-91 -92.5t-33 -135.5zM472 253q0 -85 -46.5 -135t-120.5 -50q-73 0 -119.5 50t-46.5 135q0 84 46.5 133.5t119.5 49.5t120 -49.5t47 -133.5zM245 -122
q0 -26 17 -42.5t43 -16.5q27 0 44.5 16.5t17.5 42.5t-18 43t-44 17t-43 -17t-17 -43z" />
    <glyph glyph-name="ograve" unicode="&#xf2;" horiz-adv-x="610" 
d="M51 253q0 -77 33 -136.5t91 -93t130 -33.5t130 33.5t91 93t33 136.5q0 76 -33 135.5t-91 92.5t-130 33t-130 -33t-91 -92.5t-33 -135.5zM472 253q0 -85 -46.5 -135t-120.5 -50q-73 0 -119.5 50t-46.5 135q0 84 46.5 133.5t119.5 49.5t120 -49.5t47 -133.5zM368 602
l-97 136h-97l109 -136h85z" />
    <glyph glyph-name="uni1ECF" unicode="&#x1ecf;" horiz-adv-x="610" 
d="M51 253q0 -77 33 -136.5t91 -93t130 -33.5t130 33.5t91 93t33 136.5q0 76 -33 135.5t-91 92.5t-130 33t-130 -33t-91 -92.5t-33 -135.5zM472 253q0 -85 -46.5 -135t-120.5 -50q-73 0 -119.5 50t-46.5 135q0 84 46.5 133.5t119.5 49.5t120 -49.5t47 -133.5zM289 597h74
q37 43 37 82q0 33 -26.5 56t-69.5 23q-28 0 -52.5 -11.5t-41.5 -33.5l45 -45q10 10 21.5 16.5t21.5 6.5q13 0 20.5 -7t7.5 -18q0 -22 -37 -69z" />
    <glyph glyph-name="ohorn" unicode="&#x1a1;" horiz-adv-x="661" 
d="M554 598h81v-41q0 -60 -33.5 -91t-88.5 -31h-37q40 -34 61.5 -80.5t21.5 -103.5q0 -76 -33 -135.5t-91 -92.5t-130 -33t-130 33.5t-91 93t-33 136.5q0 76 33 135.5t91 92.5t130 33q37 0 70 -9h123q56 0 56 63v30zM425.5 118q46.5 50 46.5 135q0 84 -47 133.5t-120 49.5
t-119.5 -49.5t-46.5 -133.5q0 -85 46.5 -135t119.5 -50q74 0 120.5 50z" />
    <glyph glyph-name="uni1EDB" unicode="&#x1edb;" horiz-adv-x="661" 
d="M554 598v-30q0 -63 -56 -63h-123q-33 9 -70 9q-72 0 -130 -33t-91 -92.5t-33 -135.5q0 -77 33 -136.5t91 -93t130 -33.5t130 33t91 92.5t33 135.5q0 57 -21.5 103.5t-61.5 80.5h37q55 0 88.5 31t33.5 91v41h-81zM472 253q0 -85 -46.5 -135t-120.5 -50q-73 0 -119.5 50
t-46.5 135q0 84 46.5 133.5t119.5 49.5t120 -49.5t47 -133.5zM432 738h-97l-97 -136h85z" />
    <glyph glyph-name="uni1EE3" unicode="&#x1ee3;" horiz-adv-x="661" 
d="M554 598v-30q0 -63 -56 -63h-123q-33 9 -70 9q-72 0 -130 -33t-91 -92.5t-33 -135.5q0 -77 33 -136.5t91 -93t130 -33.5t130 33t91 92.5t33 135.5q0 57 -21.5 103.5t-61.5 80.5h37q55 0 88.5 31t33.5 91v41h-81zM472 253q0 -85 -46.5 -135t-120.5 -50q-73 0 -119.5 50
t-46.5 135q0 84 46.5 133.5t119.5 49.5t120 -49.5t47 -133.5zM241 -122q0 -26 17 -42.5t43 -16.5q27 0 44.5 16.5t17.5 42.5t-18 43t-44 17t-43 -17t-17 -43z" />
    <glyph glyph-name="uni1EDD" unicode="&#x1edd;" horiz-adv-x="661" 
d="M554 598v-30q0 -63 -56 -63h-123q-33 9 -70 9q-72 0 -130 -33t-91 -92.5t-33 -135.5q0 -77 33 -136.5t91 -93t130 -33.5t130 33t91 92.5t33 135.5q0 57 -21.5 103.5t-61.5 80.5h37q55 0 88.5 31t33.5 91v41h-81zM472 253q0 -85 -46.5 -135t-120.5 -50q-73 0 -119.5 50
t-46.5 135q0 84 46.5 133.5t119.5 49.5t120 -49.5t47 -133.5zM364 602l-97 136h-97l109 -136h85z" />
    <glyph glyph-name="uni1EDF" unicode="&#x1edf;" horiz-adv-x="661" 
d="M554 598v-30q0 -63 -56 -63h-123q-33 9 -70 9q-72 0 -130 -33t-91 -92.5t-33 -135.5q0 -77 33 -136.5t91 -93t130 -33.5t130 33t91 92.5t33 135.5q0 57 -21.5 103.5t-61.5 80.5h37q55 0 88.5 31t33.5 91v41h-81zM472 253q0 -85 -46.5 -135t-120.5 -50q-73 0 -119.5 50
t-46.5 135q0 84 46.5 133.5t119.5 49.5t120 -49.5t47 -133.5zM285 597h74q37 43 37 82q0 33 -26.5 56t-69.5 23q-28 0 -52.5 -11.5t-41.5 -33.5l45 -45q10 10 21.5 16.5t21.5 6.5q13 0 20.5 -7t7.5 -18q0 -22 -37 -69z" />
    <glyph glyph-name="uni1EE1" unicode="&#x1ee1;" horiz-adv-x="661" 
d="M554 598v-30q0 -63 -56 -63h-123q-33 9 -70 9q-72 0 -130 -33t-91 -92.5t-33 -135.5q0 -77 33 -136.5t91 -93t130 -33.5t130 33t91 92.5t33 135.5q0 57 -21.5 103.5t-61.5 80.5h37q55 0 88.5 31t33.5 91v41h-81zM472 253q0 -85 -46.5 -135t-120.5 -50q-73 0 -119.5 50
t-46.5 135q0 84 46.5 133.5t119.5 49.5t120 -49.5t47 -133.5zM283 641q22 -17 40 -26.5t44 -9.5q41 0 70.5 30.5t29.5 91.5h-73q0 -52 -30 -52q-9 0 -17 5t-22 16q-19 17 -38 27t-46 10q-41 0 -70.5 -31t-29.5 -92h73q0 52 31 52q9 0 17 -5t21 -16z" />
    <glyph glyph-name="ohungarumlaut" unicode="&#x151;" horiz-adv-x="610" 
d="M51 253q0 -77 33 -136.5t91 -93t130 -33.5t130 33.5t91 93t33 136.5q0 76 -33 135.5t-91 92.5t-130 33t-130 -33t-91 -92.5t-33 -135.5zM472 253q0 -85 -46.5 -135t-120.5 -50q-73 0 -119.5 50t-46.5 135q0 84 46.5 133.5t119.5 49.5t120 -49.5t47 -133.5zM544 738h-97
l-99 -136h84zM347 738h-95l-96 -136h84z" />
    <glyph glyph-name="omacron" unicode="&#x14d;" horiz-adv-x="610" 
d="M51 253q0 -77 33 -136.5t91 -93t130 -33.5t130 33.5t91 93t33 136.5q0 76 -33 135.5t-91 92.5t-130 33t-130 -33t-91 -92.5t-33 -135.5zM472 253q0 -85 -46.5 -135t-120.5 -50q-73 0 -119.5 50t-46.5 135q0 84 46.5 133.5t119.5 49.5t120 -49.5t47 -133.5zM462 636v72
h-313v-72h313z" />
    <glyph glyph-name="oslash" unicode="&#xf8;" horiz-adv-x="610" 
d="M559 469l-51 -52q51 -70 51 -164q0 -77 -33 -136.5t-91 -93t-130 -33.5q-88 0 -154 49l-51 -52l-49 48l51 53q-51 70 -51 165q0 76 33 135.5t91 92.5t130 33q89 0 156 -50l51 54zM184.5 387.5q-46.5 -49.5 -46.5 -134.5q0 -58 24 -103l243 256q-42 31 -100 31
q-74 0 -120.5 -49.5zM391.5 89.5q38.5 22.5 60 64.5t21.5 99t-24 102l-242 -258q43 -30 98 -30q48 0 86.5 22.5z" />
    <glyph glyph-name="otilde" unicode="&#xf5;" horiz-adv-x="610" 
d="M51 253q0 -77 33 -136.5t91 -93t130 -33.5t130 33.5t91 93t33 136.5q0 76 -33 135.5t-91 92.5t-130 33t-130 -33t-91 -92.5t-33 -135.5zM472 253q0 -85 -46.5 -135t-120.5 -50q-73 0 -119.5 50t-46.5 135q0 84 46.5 133.5t119.5 49.5t120 -49.5t47 -133.5zM288 641
q22 -17 40 -26.5t44 -9.5q41 0 70.5 30.5t29.5 91.5h-73q0 -52 -30 -52q-9 0 -17 5t-22 16q-19 17 -38 27t-46 10q-41 0 -70.5 -31t-29.5 -92h73q0 52 31 52q9 0 17 -5t21 -16z" />
    <glyph glyph-name="oe" unicode="&#x153;" horiz-adv-x="993" 
d="M943 233h-384q5 -79 49 -122.5t111 -43.5q100 0 150 72l60 -51q-38 -51 -92.5 -74.5t-119.5 -23.5q-68 0 -121 31.5t-83 88.5q-31 -57 -85.5 -88.5t-124.5 -31.5q-71 0 -128.5 33.5t-90.5 93t-33 136.5q0 76 33 135.5t90.5 92.5t128.5 33q69 0 123.5 -31t86.5 -86
q29 56 81.5 86.5t118.5 30.5t118.5 -32t82.5 -90t30 -134q0 -17 -1 -25zM612 403q-40 -37 -50 -104h292q-9 70 -47.5 105.5t-94.5 35.5q-60 0 -100 -37zM425.5 118q46.5 50 46.5 135q0 84 -47 133.5t-120 49.5t-119.5 -49.5t-46.5 -133.5q0 -85 46.5 -135t119.5 -50
q74 0 120.5 50z" />
    <glyph glyph-name="p" unicode="p" horiz-adv-x="623" 
d="M456.5 481q53.5 -33 84 -92.5t30.5 -135.5q0 -77 -30.5 -136.5t-84 -92.5t-119.5 -33q-60 0 -104.5 28.5t-71.5 77.5v-303h-86v711h86v-97q27 49 71.5 77.5t104.5 28.5q66 0 119.5 -33zM439 118q45 49 45 134t-45 134.5t-117 49.5t-117.5 -49.5t-45.5 -134.5t45 -134
t118 -49q72 0 117 49z" />
    <glyph glyph-name="thorn" unicode="&#xfe;" horiz-adv-x="623" 
d="M456.5 481q53.5 -33 84 -92.5t30.5 -136.5q0 -76 -30.5 -135.5t-84 -93t-119.5 -33.5q-60 0 -104.5 29t-71.5 78v-303h-86v956h86v-342q27 49 71.5 77.5t104.5 28.5q66 0 119.5 -33zM439 118q45 49 45 134t-45 134.5t-117 49.5t-117.5 -49.5t-45.5 -134.5t45 -134
t118 -49q72 0 117 49z" />
    <glyph glyph-name="q" unicode="q" horiz-adv-x="623" 
d="M461 505h86v-711h-86v301q-27 -48 -71.5 -76.5t-104.5 -28.5q-66 0 -119 33.5t-84 93t-31 135.5t30.5 136t84 93t119.5 33q60 0 104.5 -28t71.5 -76v95zM418 118q45 49 45 134t-45 134.5t-117 49.5t-117.5 -49.5t-45.5 -134.5t45 -134t118 -49q72 0 117 49z" />
    <glyph glyph-name="r" unicode="r" horiz-adv-x="363" 
d="M332 514v-91h-48q-54 0 -88.5 -42t-34.5 -110v-271h-86v505h86v-87q22 47 58 71.5t83 24.5h30z" />
    <glyph glyph-name="racute" unicode="&#x155;" horiz-adv-x="363" 
d="M332 514h-30q-47 0 -83 -24.5t-58 -71.5v87h-86v-505h86v271q0 68 34.5 110t88.5 42h48v91zM336 738h-97l-97 -136h85z" />
    <glyph glyph-name="rcaron" unicode="&#x159;" horiz-adv-x="363" 
d="M332 514h-30q-47 0 -83 -24.5t-58 -71.5v87h-86v-505h86v271q0 68 34.5 110t88.5 42h48v91zM166 602h77l132 136h-98q-20 -21 -43 -47.5t-28 -34.5h-3q-3 8 -26.5 34.5t-43.5 47.5h-99z" />
    <glyph glyph-name="uni0157" unicode="&#x157;" horiz-adv-x="363" 
d="M332 514h-30q-47 0 -83 -24.5t-58 -71.5v87h-86v-505h86v271q0 68 34.5 110t88.5 42h48v91zM179 -115q0 22 -17 36.5t-43 14.5q-25 0 -41.5 -14t-16.5 -36q0 -17 11.5 -29.5t31.5 -16.5l-42 -61l46 -27l50 77q21 31 21 56z" />
    <glyph glyph-name="uni1E59" unicode="&#x1e59;" horiz-adv-x="363" 
d="M332 514h-30q-47 0 -83 -24.5t-58 -71.5v87h-86v-505h86v271q0 68 34.5 110t88.5 42h48v91zM145 682q0 -27 17 -43.5t43 -16.5q27 0 44.5 16.5t17.5 43.5q0 25 -18 42t-44 17t-43 -17t-17 -42z" />
    <glyph glyph-name="uni1E5B" unicode="&#x1e5b;" horiz-adv-x="363" 
d="M332 514h-30q-47 0 -83 -24.5t-58 -71.5v87h-86v-505h86v271q0 68 34.5 110t88.5 42h48v91zM59 -122q0 -26 17 -42.5t43 -16.5q27 0 44.5 16.5t17.5 42.5t-18 43t-44 17t-43 -17t-17 -43z" />
    <glyph glyph-name="uni1E5D" unicode="&#x1e5d;" horiz-adv-x="363" 
d="M332 514h-30q-47 0 -83 -24.5t-58 -71.5v87h-86v-505h86v271q0 68 34.5 110t88.5 42h48v91zM361 636v72h-313v-72h313zM59 -122q0 -26 17 -42.5t43 -16.5q27 0 44.5 16.5t17.5 42.5t-18 43t-44 17t-43 -17t-17 -43z" />
    <glyph glyph-name="uni1E5F" unicode="&#x1e5f;" horiz-adv-x="363" 
d="M332 514h-30q-47 0 -83 -24.5t-58 -71.5v87h-86v-505h86v271q0 68 34.5 110t88.5 42h48v91zM277 -142v72h-313v-72h313z" />
    <glyph glyph-name="s" unicode="s" horiz-adv-x="501" 
d="M122 19q-55 29 -81 88l68 40q39 -82 137 -82q57 0 89.5 19.5t32.5 50.5q0 29 -25.5 45.5t-85.5 31.5l-51 12q-76 20 -112 57.5t-36 92.5q0 62 51.5 101t136.5 39q68 0 121 -30t79 -88l-70 -35q-18 40 -52.5 59t-77.5 19q-46 0 -74 -17.5t-28 -46.5q0 -31 27 -48.5
t77 -29.5l51 -13q79 -20 117 -55.5t38 -91.5q0 -42 -25.5 -75.5t-72.5 -52.5t-109 -19q-70 0 -125 29z" />
    <glyph glyph-name="sacute" unicode="&#x15b;" horiz-adv-x="501" 
d="M41 107q26 -59 81 -88t125 -29q62 0 109 19t72.5 52.5t25.5 75.5q0 56 -38 91.5t-117 55.5l-51 13q-50 12 -77 29.5t-27 48.5q0 29 28 46.5t74 17.5q43 0 77.5 -19t52.5 -59l70 35q-26 58 -79 88t-121 30q-85 0 -136.5 -39t-51.5 -101q0 -55 36 -92.5t112 -57.5l51 -12
q60 -15 85.5 -31.5t25.5 -45.5q0 -31 -32.5 -50.5t-89.5 -19.5q-98 0 -137 82zM383 738h-97l-97 -136h85z" />
    <glyph glyph-name="scaron" unicode="&#x161;" horiz-adv-x="501" 
d="M41 107q26 -59 81 -88t125 -29q62 0 109 19t72.5 52.5t25.5 75.5q0 56 -38 91.5t-117 55.5l-51 13q-50 12 -77 29.5t-27 48.5q0 29 28 46.5t74 17.5q43 0 77.5 -19t52.5 -59l70 35q-26 58 -79 88t-121 30q-85 0 -136.5 -39t-51.5 -101q0 -55 36 -92.5t112 -57.5l51 -12
q60 -15 85.5 -31.5t25.5 -45.5q0 -31 -32.5 -50.5t-89.5 -19.5q-98 0 -137 82zM213 602h77l132 136h-98q-20 -21 -43 -47.5t-28 -34.5h-3q-3 8 -26.5 34.5t-43.5 47.5h-99z" />
    <glyph glyph-name="scedilla" unicode="&#x15f;" horiz-adv-x="501" 
d="M409 40.5q-45 -39.5 -122 -48.5l17 -15q38 -34 38 -75q0 -32 -25 -53t-71 -21h-72v75h56q14 0 22.5 7t8.5 18q0 18 -19 38l-25 25q-60 6 -106.5 34.5t-69.5 81.5l68 40q39 -82 137 -82q57 0 89.5 19.5t32.5 50.5q0 29 -25.5 45.5t-85.5 31.5l-51 12q-76 20 -112 57.5
t-36 92.5q0 62 51.5 101t136.5 39q68 0 121 -30t79 -88l-70 -35q-18 40 -52.5 59t-77.5 19q-46 0 -74 -17.5t-28 -46.5q0 -31 27 -48.5t77 -29.5l51 -13q79 -20 117 -55.5t38 -91.5q0 -57 -45 -96.5z" />
    <glyph glyph-name="scircumflex" unicode="&#x15d;" horiz-adv-x="501" 
d="M41 107q26 -59 81 -88t125 -29q62 0 109 19t72.5 52.5t25.5 75.5q0 56 -38 91.5t-117 55.5l-51 13q-50 12 -77 29.5t-27 48.5q0 29 28 46.5t74 17.5q43 0 77.5 -19t52.5 -59l70 35q-26 58 -79 88t-121 30q-85 0 -136.5 -39t-51.5 -101q0 -55 36 -92.5t112 -57.5l51 -12
q60 -15 85.5 -31.5t25.5 -45.5q0 -31 -32.5 -50.5t-89.5 -19.5q-98 0 -137 82zM82 602h98q20 21 43 47.5t27 34.5h3q4 -8 27.5 -34.5t43.5 -47.5h98l-132 136h-76z" />
    <glyph glyph-name="uni0219" unicode="&#x219;" horiz-adv-x="501" 
d="M41 107q26 -59 81 -88t125 -29q62 0 109 19t72.5 52.5t25.5 75.5q0 56 -38 91.5t-117 55.5l-51 13q-50 12 -77 29.5t-27 48.5q0 29 28 46.5t74 17.5q43 0 77.5 -19t52.5 -59l70 35q-26 58 -79 88t-121 30q-85 0 -136.5 -39t-51.5 -101q0 -55 36 -92.5t112 -57.5l51 -12
q60 -15 85.5 -31.5t25.5 -45.5q0 -31 -32.5 -50.5t-89.5 -19.5q-98 0 -137 82zM304 -115q0 22 -17 36.5t-43 14.5q-25 0 -41.5 -14t-16.5 -36q0 -17 11.5 -29.5t31.5 -16.5l-42 -61l46 -27l50 77q21 31 21 56z" />
    <glyph glyph-name="uni1E63" unicode="&#x1e63;" horiz-adv-x="501" 
d="M41 107q26 -59 81 -88t125 -29q62 0 109 19t72.5 52.5t25.5 75.5q0 56 -38 91.5t-117 55.5l-51 13q-50 12 -77 29.5t-27 48.5q0 29 28 46.5t74 17.5q43 0 77.5 -19t52.5 -59l70 35q-26 58 -79 88t-121 30q-85 0 -136.5 -39t-51.5 -101q0 -55 36 -92.5t112 -57.5l51 -12
q60 -15 85.5 -31.5t25.5 -45.5q0 -31 -32.5 -50.5t-89.5 -19.5q-98 0 -137 82zM185 -122q0 -26 17 -42.5t43 -16.5q27 0 44.5 16.5t17.5 42.5t-18 43t-44 17t-43 -17t-17 -43z" />
    <glyph glyph-name="germandbls" unicode="&#xdf;" horiz-adv-x="608" 
d="M515.5 331.5q42.5 -51.5 42.5 -118.5q0 -65 -29.5 -113t-81.5 -74t-116 -26h-78v77h64q69 0 111 36.5t42 102.5q0 65 -41.5 101t-111.5 36h-24v76h3q59 0 97.5 31.5t38.5 93.5q0 58 -38.5 92.5t-97.5 34.5q-62 0 -98.5 -39t-36.5 -106v-536h-86v537q0 63 25 113.5
t75.5 80t122.5 29.5q63 0 113.5 -26t79.5 -72t29 -105q0 -62 -30 -105t-79 -58q62 -11 104.5 -62.5z" />
    <glyph glyph-name="longs" unicode="&#x17f;" horiz-adv-x="257" 
d="M75 609q0 67 37.5 108t108.5 41h59v-79h-51q-35 0 -51 -19t-16 -58v-602h-87v609z" />
    <glyph glyph-name="t" unicode="t" horiz-adv-x="366" 
d="M330 432h-119v-276q0 -80 67 -80h52v-76h-60q-71 0 -108 40.5t-37 108.5v283h-94v73h94v110l86 56v-166h119v-73z" />
    <glyph glyph-name="tbar" unicode="&#x167;" horiz-adv-x="371" 
d="M333 432h-118v-129h118v-68h-118v-79q0 -80 67 -80h51v-76h-60q-70 0 -107 40.5t-37 108.5v86h-95v68h95v129h-95v73h95v110l86 56v-166h118v-73z" />
    <glyph glyph-name="tcaron" unicode="&#x165;" horiz-adv-x="366" 
d="M330 432v73h-119v166l-86 -56v-110h-94v-73h94v-283q0 -68 37 -108.5t108 -40.5h60v76h-52q-67 0 -67 80v276h119zM260 547h54l23 105v98h-77v-203z" />
    <glyph glyph-name="uni0163" unicode="&#x163;" horiz-adv-x="366" 
d="M330 432h-119v-276q0 -80 67 -80h52v-76h-60q-13 0 -19 1l9 -12q24 -31 35 -50.5t11 -36.5q0 -32 -25.5 -53t-70.5 -21h-72v75h55q15 0 23 7t8 18q0 8 -4.5 18t-16.5 30l-38 62q-40 40 -40 111v283h-94v73h94v110l86 56v-166h119v-73z" />
    <glyph glyph-name="uni021B" unicode="&#x21b;" horiz-adv-x="366" 
d="M330 432v73h-119v166l-86 -56v-110h-94v-73h94v-283q0 -68 37 -108.5t108 -40.5h60v76h-52q-67 0 -67 80v276h119zM292 -115q0 22 -17 36.5t-43 14.5q-25 0 -41.5 -14t-16.5 -36q0 -17 11.5 -29.5t31.5 -16.5l-42 -61l46 -27l50 77q21 31 21 56z" />
    <glyph glyph-name="uni1E6D" unicode="&#x1e6d;" horiz-adv-x="366" 
d="M330 432v73h-119v166l-86 -56v-110h-94v-73h94v-283q0 -68 37 -108.5t108 -40.5h60v76h-52q-67 0 -67 80v276h119zM172 -122q0 -26 17 -42.5t43 -16.5q27 0 44.5 16.5t17.5 42.5t-18 43t-44 17t-43 -17t-17 -43z" />
    <glyph glyph-name="uni1E6F" unicode="&#x1e6f;" horiz-adv-x="366" 
d="M330 432v73h-119v166l-86 -56v-110h-94v-73h94v-283q0 -68 37 -108.5t108 -40.5h60v76h-52q-67 0 -67 80v276h119zM390 -142v72h-313v-72h313z" />
    <glyph glyph-name="u" unicode="u" horiz-adv-x="569" 
d="M129.5 47.5q-59.5 56.5 -59.5 156.5v301h86v-294q0 -69 35.5 -105.5t93.5 -36.5q59 0 93.5 36.5t34.5 105.5v294h86v-301q0 -100 -59 -156.5t-155 -56.5t-155.5 56.5z" />
    <glyph glyph-name="uacute" unicode="&#xfa;" horiz-adv-x="569" 
d="M70 204q0 -100 59.5 -156.5t155.5 -56.5t155 56.5t59 156.5v301h-86v-294q0 -69 -34.5 -105.5t-93.5 -36.5q-58 0 -93.5 36.5t-35.5 105.5v294h-86v-301zM416 738h-97l-97 -136h85z" />
    <glyph glyph-name="ubreve" unicode="&#x16d;" horiz-adv-x="569" 
d="M70 204q0 -100 59.5 -156.5t155.5 -56.5t155 56.5t59 156.5v301h-86v-294q0 -69 -34.5 -105.5t-93.5 -36.5q-58 0 -93.5 36.5t-35.5 105.5v294h-86v-301zM128 738q2 -65 46 -102.5t111 -37.5t111 37.5t46 102.5h-77q-1 -36 -22.5 -55t-57.5 -19t-57 18.5t-22 55.5h-78z
" />
    <glyph glyph-name="uni01D4" unicode="&#x1d4;" horiz-adv-x="569" 
d="M70 204q0 -100 59.5 -156.5t155.5 -56.5t155 56.5t59 156.5v301h-86v-294q0 -69 -34.5 -105.5t-93.5 -36.5q-58 0 -93.5 36.5t-35.5 105.5v294h-86v-301zM247 602h77l132 136h-98q-20 -21 -43 -47.5t-28 -34.5h-3q-3 8 -26.5 34.5t-43.5 47.5h-99z" />
    <glyph glyph-name="ucircumflex" unicode="&#xfb;" horiz-adv-x="569" 
d="M70 204q0 -100 59.5 -156.5t155.5 -56.5t155 56.5t59 156.5v301h-86v-294q0 -69 -34.5 -105.5t-93.5 -36.5q-58 0 -93.5 36.5t-35.5 105.5v294h-86v-301zM116 602h98q20 21 43 47.5t27 34.5h3q4 -8 27.5 -34.5t43.5 -47.5h98l-132 136h-76z" />
    <glyph glyph-name="udieresis" unicode="&#xfc;" horiz-adv-x="569" 
d="M70 204q0 -100 59.5 -156.5t155.5 -56.5t155 56.5t59 156.5v301h-86v-294q0 -69 -34.5 -105.5t-93.5 -36.5q-58 0 -93.5 36.5t-35.5 105.5v294h-86v-301zM117 677q0 -25 16 -40t40 -15t40 15t16 40t-16 40t-40 15t-40 -15t-16 -40zM341 677q0 -25 16 -40t40 -15t40 15
t16 40t-16 40t-40 15t-40 -15t-16 -40z" />
    <glyph glyph-name="uni01D8" unicode="&#x1d8;" horiz-adv-x="569" 
d="M70 204q0 -100 59.5 -156.5t155.5 -56.5t155 56.5t59 156.5v301h-86v-294q0 -69 -34.5 -105.5t-93.5 -36.5q-58 0 -93.5 36.5t-35.5 105.5v294h-86v-301zM323 761l99 136h-97l-87 -136h85zM117 657q0 -25 16 -40t40 -15t40 15t16 40t-16 40t-40 15t-40 -15t-16 -40z
M341 657q0 -25 16 -40t40 -15t40 15t16 40t-16 40t-40 15t-40 -15t-16 -40z" />
    <glyph glyph-name="uni01DA" unicode="&#x1da;" horiz-adv-x="569" 
d="M70 204q0 -100 59.5 -156.5t155.5 -56.5t155 56.5t59 156.5v301h-86v-294q0 -69 -34.5 -105.5t-93.5 -36.5q-58 0 -93.5 36.5t-35.5 105.5v294h-86v-301zM247 761h77l132 136h-98q-20 -21 -43 -47.5t-28 -34.5h-3q-3 8 -26.5 34.5t-43.5 47.5h-98zM341 657q0 -25 16 -40
t40 -15t40 15t16 40t-16 40t-40 15t-40 -15t-16 -40zM118 657q0 -25 15.5 -40t39.5 -15t40 15t16 40t-16 40t-40 15t-39.5 -15t-15.5 -40z" />
    <glyph glyph-name="uni01DC" unicode="&#x1dc;" horiz-adv-x="569" 
d="M70 204q0 -100 59.5 -156.5t155.5 -56.5t155 56.5t59 156.5v301h-86v-294q0 -69 -34.5 -105.5t-93.5 -36.5q-58 0 -93.5 36.5t-35.5 105.5v294h-86v-301zM343 761l-87 136h-97l99 -136h85zM117 657q0 -25 16 -40t40 -15t40 15t16 40t-16 40t-40 15t-40 -15t-16 -40z
M341 657q0 -25 16 -40t40 -15t40 15t16 40t-16 40t-40 15t-40 -15t-16 -40z" />
    <glyph glyph-name="uni01D6" unicode="&#x1d6;" horiz-adv-x="569" 
d="M70 204q0 -100 59.5 -156.5t155.5 -56.5t155 56.5t59 156.5v301h-86v-294q0 -69 -34.5 -105.5t-93.5 -36.5q-58 0 -93.5 36.5t-35.5 105.5v294h-86v-301zM442 772v72h-313v-72h313zM117 657q0 -25 16 -40t40 -15t40 15t16 40t-16 40t-40 15t-40 -15t-16 -40zM341 657
q0 -25 16 -40t40 -15t40 15t16 40t-16 40t-40 15t-40 -15t-16 -40z" />
    <glyph glyph-name="uni1EE5" unicode="&#x1ee5;" horiz-adv-x="569" 
d="M70 204q0 -100 59.5 -156.5t155.5 -56.5t155 56.5t59 156.5v301h-86v-294q0 -69 -34.5 -105.5t-93.5 -36.5q-58 0 -93.5 36.5t-35.5 105.5v294h-86v-301zM224 -122q0 -26 17 -42.5t43 -16.5q27 0 44.5 16.5t17.5 42.5t-18 43t-44 17t-43 -17t-17 -43z" />
    <glyph glyph-name="ugrave" unicode="&#xf9;" horiz-adv-x="569" 
d="M70 204q0 -100 59.5 -156.5t155.5 -56.5t155 56.5t59 156.5v301h-86v-294q0 -69 -34.5 -105.5t-93.5 -36.5q-58 0 -93.5 36.5t-35.5 105.5v294h-86v-301zM348 602l-97 136h-97l109 -136h85z" />
    <glyph glyph-name="uni1EE7" unicode="&#x1ee7;" horiz-adv-x="569" 
d="M70 204q0 -100 59.5 -156.5t155.5 -56.5t155 56.5t59 156.5v301h-86v-294q0 -69 -34.5 -105.5t-93.5 -36.5q-58 0 -93.5 36.5t-35.5 105.5v294h-86v-301zM269 597h74q37 43 37 82q0 33 -26.5 56t-69.5 23q-28 0 -52.5 -11.5t-41.5 -33.5l45 -45q10 10 21.5 16.5t21.5 6.5
q13 0 20.5 -7t7.5 -18q0 -22 -37 -69z" />
    <glyph glyph-name="uhorn" unicode="&#x1b0;" horiz-adv-x="664" 
d="M568 598h81v-41q0 -60 -33.5 -91t-88.5 -31h-28v-231q0 -100 -59 -156.5t-155 -56.5t-155.5 56.5t-59.5 156.5v301h86v-294q0 -69 35.5 -105.5t93.5 -36.5q59 0 93.5 36.5t34.5 105.5v294h99q56 0 56 63v30z" />
    <glyph glyph-name="uni1EE9" unicode="&#x1ee9;" horiz-adv-x="664" 
d="M568 598v-30q0 -63 -56 -63h-99v-294q0 -69 -34.5 -105.5t-93.5 -36.5q-58 0 -93.5 36.5t-35.5 105.5v294h-86v-301q0 -100 59.5 -156.5t155.5 -56.5t155 56.5t59 156.5v231h28q55 0 88.5 31t33.5 91v41h-81zM416 738h-97l-97 -136h85z" />
    <glyph glyph-name="uni1EF1" unicode="&#x1ef1;" horiz-adv-x="664" 
d="M568 598v-30q0 -63 -56 -63h-99v-294q0 -69 -34.5 -105.5t-93.5 -36.5q-58 0 -93.5 36.5t-35.5 105.5v294h-86v-301q0 -100 59.5 -156.5t155.5 -56.5t155 56.5t59 156.5v231h28q55 0 88.5 31t33.5 91v41h-81zM224 -122q0 -26 17 -42.5t43 -16.5q27 0 44.5 16.5t17.5 42.5
t-18 43t-44 17t-43 -17t-17 -43z" />
    <glyph glyph-name="uni1EEB" unicode="&#x1eeb;" horiz-adv-x="664" 
d="M568 598v-30q0 -63 -56 -63h-99v-294q0 -69 -34.5 -105.5t-93.5 -36.5q-58 0 -93.5 36.5t-35.5 105.5v294h-86v-301q0 -100 59.5 -156.5t155.5 -56.5t155 56.5t59 156.5v231h28q55 0 88.5 31t33.5 91v41h-81zM348 602l-97 136h-97l109 -136h85z" />
    <glyph glyph-name="uni1EED" unicode="&#x1eed;" horiz-adv-x="664" 
d="M568 598v-30q0 -63 -56 -63h-99v-294q0 -69 -34.5 -105.5t-93.5 -36.5q-58 0 -93.5 36.5t-35.5 105.5v294h-86v-301q0 -100 59.5 -156.5t155.5 -56.5t155 56.5t59 156.5v231h28q55 0 88.5 31t33.5 91v41h-81zM269 597h74q37 43 37 82q0 33 -26.5 56t-69.5 23
q-28 0 -52.5 -11.5t-41.5 -33.5l45 -45q10 10 21.5 16.5t21.5 6.5q13 0 20.5 -7t7.5 -18q0 -22 -37 -69z" />
    <glyph glyph-name="uni1EEF" unicode="&#x1eef;" horiz-adv-x="664" 
d="M568 598v-30q0 -63 -56 -63h-99v-294q0 -69 -34.5 -105.5t-93.5 -36.5q-58 0 -93.5 36.5t-35.5 105.5v294h-86v-301q0 -100 59.5 -156.5t155.5 -56.5t155 56.5t59 156.5v231h28q55 0 88.5 31t33.5 91v41h-81zM268 641q22 -17 40 -26.5t44 -9.5q41 0 70.5 30.5t29.5 91.5
h-73q0 -52 -30 -52q-9 0 -17 5t-22 16q-19 17 -38 27t-46 10q-41 0 -70.5 -31t-29.5 -92h73q0 52 31 52q9 0 17 -5t21 -16z" />
    <glyph glyph-name="uhungarumlaut" unicode="&#x171;" horiz-adv-x="569" 
d="M70 204q0 -100 59.5 -156.5t155.5 -56.5t155 56.5t59 156.5v301h-86v-294q0 -69 -34.5 -105.5t-93.5 -36.5q-58 0 -93.5 36.5t-35.5 105.5v294h-86v-301zM524 738h-97l-99 -136h84zM327 738h-95l-96 -136h84z" />
    <glyph glyph-name="umacron" unicode="&#x16b;" horiz-adv-x="569" 
d="M70 204q0 -100 59.5 -156.5t155.5 -56.5t155 56.5t59 156.5v301h-86v-294q0 -69 -34.5 -105.5t-93.5 -36.5q-58 0 -93.5 36.5t-35.5 105.5v294h-86v-301zM442 636v72h-313v-72h313z" />
    <glyph glyph-name="uogonek" unicode="&#x173;" horiz-adv-x="569" 
d="M413 505h86v-301q0 -80 -38.5 -132.5t-105.5 -71.5l-32 -34q-19 -20 -19 -38q0 -11 8 -18t23 -7h35v-75h-52q-45 0 -70.5 21t-25.5 53q0 41 38 75l16 14q-92 3 -149 59t-57 154v301h86v-294q0 -69 35.5 -105.5t93.5 -36.5q59 0 93.5 36.5t34.5 105.5v294z" />
    <glyph glyph-name="uring" unicode="&#x16f;" horiz-adv-x="569" 
d="M70 204q0 -100 59.5 -156.5t155.5 -56.5t155 56.5t59 156.5v301h-86v-294q0 -69 -34.5 -105.5t-93.5 -36.5q-58 0 -93.5 36.5t-35.5 105.5v294h-86v-301zM163 680q0 -45 34.5 -74t87.5 -29t87.5 29t34.5 74q0 46 -34.5 75.5t-87.5 29.5t-87.5 -29.5t-34.5 -75.5zM342 680
q0 -21 -15 -33.5t-42 -12.5q-26 0 -41 12.5t-15 33.5t15 34t41 13q27 0 42 -13t15 -34z" />
    <glyph glyph-name="utilde" unicode="&#x169;" horiz-adv-x="569" 
d="M70 204q0 -100 59.5 -156.5t155.5 -56.5t155 56.5t59 156.5v301h-86v-294q0 -69 -34.5 -105.5t-93.5 -36.5q-58 0 -93.5 36.5t-35.5 105.5v294h-86v-301zM268 641q22 -17 40 -26.5t44 -9.5q41 0 70.5 30.5t29.5 91.5h-73q0 -52 -30 -52q-9 0 -17 5t-22 16q-19 17 -38 27
t-46 10q-41 0 -70.5 -31t-29.5 -92h73q0 52 31 52q9 0 17 -5t21 -16z" />
    <glyph glyph-name="v" unicode="v" horiz-adv-x="543" 
d="M232 -1l-204 506h93l126 -322q24 -60 24 -79h3q0 14 11 44t13 35l125 322h92l-204 -506h-79z" />
    <glyph glyph-name="w" unicode="w" horiz-adv-x="789" 
d="M525 215q26 -82 26 -103h4q0 17 25 104l88 289h89l-161 -505h-81l-93 290q-25 83 -25 101h-4q0 -21 -26 -101l-94 -290h-79l-162 505h90l88 -289q26 -84 26 -104h3q2 22 27 104l93 289h72z" />
    <glyph glyph-name="wacute" unicode="&#x1e83;" horiz-adv-x="789" 
d="M525 215l-94 290h-72l-93 -289q-25 -82 -27 -104h-3q0 20 -26 104l-88 289h-90l162 -505h79l94 290q26 80 26 101h4q0 -18 25 -101l93 -290h81l161 505h-89l-88 -289q-25 -87 -25 -104h-4q0 21 -26 103zM526 738h-97l-97 -136h85z" />
    <glyph glyph-name="wcircumflex" unicode="&#x175;" horiz-adv-x="789" 
d="M525 215l-94 290h-72l-93 -289q-25 -82 -27 -104h-3q0 20 -26 104l-88 289h-90l162 -505h79l94 290q26 80 26 101h4q0 -18 25 -101l93 -290h81l161 505h-89l-88 -289q-25 -87 -25 -104h-4q0 21 -26 103zM225 602h98q20 21 43 47.5t27 34.5h3q4 -8 27.5 -34.5t43.5 -47.5
h98l-132 136h-76z" />
    <glyph glyph-name="wdieresis" unicode="&#x1e85;" horiz-adv-x="789" 
d="M525 215l-94 290h-72l-93 -289q-25 -82 -27 -104h-3q0 20 -26 104l-88 289h-90l162 -505h79l94 290q26 80 26 101h4q0 -18 25 -101l93 -290h81l161 505h-89l-88 -289q-25 -87 -25 -104h-4q0 21 -26 103zM227 677q0 -25 16 -40t40 -15t40 15t16 40t-16 40t-40 15t-40 -15
t-16 -40zM451 677q0 -25 16 -40t40 -15t40 15t16 40t-16 40t-40 15t-40 -15t-16 -40z" />
    <glyph glyph-name="uni1E89" unicode="&#x1e89;" horiz-adv-x="789" 
d="M525 215l-94 290h-72l-93 -289q-25 -82 -27 -104h-3q0 20 -26 104l-88 289h-90l162 -505h79l94 290q26 80 26 101h4q0 -18 25 -101l93 -290h81l161 505h-89l-88 -289q-25 -87 -25 -104h-4q0 21 -26 103zM335 -122q0 -26 17 -42.5t43 -16.5q27 0 44.5 16.5t17.5 42.5
t-18 43t-44 17t-43 -17t-17 -43z" />
    <glyph glyph-name="wgrave" unicode="&#x1e81;" horiz-adv-x="789" 
d="M525 215l-94 290h-72l-93 -289q-25 -82 -27 -104h-3q0 20 -26 104l-88 289h-90l162 -505h79l94 290q26 80 26 101h4q0 -18 25 -101l93 -290h81l161 505h-89l-88 -289q-25 -87 -25 -104h-4q0 21 -26 103zM458 602l-97 136h-97l109 -136h85z" />
    <glyph glyph-name="x" unicode="x" horiz-adv-x="528" 
d="M316 258l196 -258h-103l-97 126q-18 24 -31.5 45.5t-15.5 30.5h-4q-3 -10 -17 -32t-31 -44l-97 -126h-100l197 257l-189 248h104l88 -114q44 -59 48 -76h3q3 10 17 32t31 44l88 114h101z" />
    <glyph glyph-name="y" unicode="y" horiz-adv-x="547" 
d="M253 255q10 -23 18.5 -45t8.5 -31h4q0 15 27 75l124 251h94l-345 -711h-95l148 304l-205 407h98z" />
    <glyph glyph-name="yacute" unicode="&#xfd;" horiz-adv-x="547" 
d="M253 255l-123 250h-98l205 -407l-148 -304h95l345 711h-94l-124 -251q-27 -60 -27 -75h-4q0 9 -8.5 31t-18.5 45zM414 738h-97l-97 -136h85z" />
    <glyph glyph-name="ycircumflex" unicode="&#x177;" horiz-adv-x="547" 
d="M253 255l-123 250h-98l205 -407l-148 -304h95l345 711h-94l-124 -251q-27 -60 -27 -75h-4q0 9 -8.5 31t-18.5 45zM113 602h98q20 21 43 47.5t27 34.5h3q4 -8 27.5 -34.5t43.5 -47.5h98l-132 136h-76z" />
    <glyph glyph-name="ydieresis" unicode="&#xff;" horiz-adv-x="547" 
d="M253 255l-123 250h-98l205 -407l-148 -304h95l345 711h-94l-124 -251q-27 -60 -27 -75h-4q0 9 -8.5 31t-18.5 45zM114 677q0 -25 16 -40t40 -15t40 15t16 40t-16 40t-40 15t-40 -15t-16 -40zM338 677q0 -25 16 -40t40 -15t40 15t16 40t-16 40t-40 15t-40 -15t-16 -40z
" />
    <glyph glyph-name="uni1EF5" unicode="&#x1ef5;" horiz-adv-x="547" 
d="M253 255l-123 250h-98l205 -407l-148 -304h95l345 711h-94l-124 -251q-27 -60 -27 -75h-4q0 9 -8.5 31t-18.5 45zM323 -133q0 -26 17 -42.5t43 -16.5q27 0 44.5 16.5t17.5 42.5t-18 43t-44 17t-43 -17t-17 -43z" />
    <glyph glyph-name="ygrave" unicode="&#x1ef3;" horiz-adv-x="547" 
d="M253 255l-123 250h-98l205 -407l-148 -304h95l345 711h-94l-124 -251q-27 -60 -27 -75h-4q0 9 -8.5 31t-18.5 45zM345 602l-97 136h-97l109 -136h85z" />
    <glyph glyph-name="uni1EF7" unicode="&#x1ef7;" horiz-adv-x="547" 
d="M253 255l-123 250h-98l205 -407l-148 -304h95l345 711h-94l-124 -251q-27 -60 -27 -75h-4q0 9 -8.5 31t-18.5 45zM266 597h74q37 43 37 82q0 33 -26.5 56t-69.5 23q-28 0 -52.5 -11.5t-41.5 -33.5l45 -45q10 10 21.5 16.5t21.5 6.5q13 0 20.5 -7t7.5 -18q0 -22 -37 -69z
" />
    <glyph glyph-name="uni0233" unicode="&#x233;" horiz-adv-x="547" 
d="M253 255l-123 250h-98l205 -407l-148 -304h95l345 711h-94l-124 -251q-27 -60 -27 -75h-4q0 9 -8.5 31t-18.5 45zM439 636v72h-313v-72h313z" />
    <glyph glyph-name="uni1EF9" unicode="&#x1ef9;" horiz-adv-x="547" 
d="M253 255l-123 250h-98l205 -407l-148 -304h95l345 711h-94l-124 -251q-27 -60 -27 -75h-4q0 9 -8.5 31t-18.5 45zM265 641q22 -17 40 -26.5t44 -9.5q41 0 70.5 30.5t29.5 91.5h-73q0 -52 -30 -52q-9 0 -17 5t-22 16q-19 17 -38 27t-46 10q-41 0 -70.5 -31t-29.5 -92h73
q0 52 31 52q9 0 17 -5t21 -16z" />
    <glyph glyph-name="z" unicode="z" horiz-adv-x="497" 
d="M199 129q-40 -49 -55 -58l1 -3q17 8 80 8h227v-76h-410v62l250 314q42 50 56 58l-1 3q-17 -8 -81 -8h-212v76h392v-64z" />
    <glyph glyph-name="zacute" unicode="&#x17a;" horiz-adv-x="497" 
d="M199 129l247 312v64h-392v-76h212q64 0 81 8l1 -3q-14 -8 -56 -58l-250 -314v-62h410v76h-227q-63 0 -80 -8l-1 3q15 9 55 58zM384 738h-97l-97 -136h85z" />
    <glyph glyph-name="zcaron" unicode="&#x17e;" horiz-adv-x="497" 
d="M199 129l247 312v64h-392v-76h212q64 0 81 8l1 -3q-14 -8 -56 -58l-250 -314v-62h410v76h-227q-63 0 -80 -8l-1 3q15 9 55 58zM214 602h77l132 136h-98q-20 -21 -43 -47.5t-28 -34.5h-3q-3 8 -26.5 34.5t-43.5 47.5h-99z" />
    <glyph glyph-name="zdotaccent" unicode="&#x17c;" horiz-adv-x="497" 
d="M199 129l247 312v64h-392v-76h212q64 0 81 8l1 -3q-14 -8 -56 -58l-250 -314v-62h410v76h-227q-63 0 -80 -8l-1 3q15 9 55 58zM192 682q0 -27 17 -43.5t43 -16.5q27 0 44.5 16.5t17.5 43.5q0 25 -18 42t-44 17t-43 -17t-17 -42z" />
    <glyph glyph-name="uni1E93" unicode="&#x1e93;" horiz-adv-x="497" 
d="M199 129l247 312v64h-392v-76h212q64 0 81 8l1 -3q-14 -8 -56 -58l-250 -314v-62h410v76h-227q-63 0 -80 -8l-1 3q15 9 55 58zM189 -122q0 -26 17 -42.5t43 -16.5q27 0 44.5 16.5t17.5 42.5t-18 43t-44 17t-43 -17t-17 -43z" />
    <glyph glyph-name="uni1E95" unicode="&#x1e95;" horiz-adv-x="497" 
d="M199 129l247 312v64h-392v-76h212q64 0 81 8l1 -3q-14 -8 -56 -58l-250 -314v-62h410v76h-227q-63 0 -80 -8l-1 3q15 9 55 58zM406 -142v72h-313v-72h313z" />
    <glyph glyph-name="uni013C.latnMAH" horiz-adv-x="289" 
d="M234 -23q38 -40 38 -75q0 -32 -25 -53t-71 -21h-67v75h51q14 0 22.5 7t8.5 18q0 16 -19 38l-59 68q-36 36 -36 101v565h86v-560q0 -32 13.5 -48t43.5 -16h42v-76h-49z" />
    <glyph glyph-name="uni0146.latnMAH" horiz-adv-x="575" 
d="M504 316q0 59 -24 104t-67 69.5t-98 24.5q-48 0 -89 -21.5t-65 -66.5v79h-86v-505h86v300q0 62 38 99.5t98 37.5q54 0 87.5 -36.5t33.5 -97.5v-303h86v316zM219 -172h72q46 0 71 21t25 53q0 41 -38 75l-37 34l-58 -11l33 -34q19 -20 19 -38q0 -11 -8.5 -18t-22.5 -7h-56
v-75z" />
    <glyph glyph-name="aogonek.latnNAV" horiz-adv-x="556" 
d="M373 492.5q51 -21.5 82 -66t31 -111.5v-315h-83v50q-31 -37 -86 -52l-31 -32q-19 -20 -19 -38q0 -11 8.5 -18t22.5 -7h36v-75h-52q-46 0 -71 21t-25 53q0 41 38 75l15 13q-84 2 -140 43t-56 113q0 48 27.5 83t74 53.5t102.5 18.5q104 0 153 -55v61q0 66 -39.5 98
t-100.5 32q-45 0 -79.5 -19t-52.5 -52l-63 47q28 49 79.5 75t116.5 26q61 0 112 -21.5zM364.5 81q37.5 23 37.5 65t-37.5 65t-96.5 23q-60 0 -98 -22.5t-38 -65.5t38 -65.5t98 -22.5q59 0 96.5 23z" />
    <glyph glyph-name="eogonek.latnNAV" horiz-adv-x="573" 
d="M523 233h-384q5 -79 49 -122.5t111 -43.5q99 0 150 72l60 -51q-62 -83 -171 -96l-8 -10q-17 -22 -23 -33.5t-6 -20.5q0 -11 8 -18t23 -7h35v-75h-52q-45 0 -70.5 21t-25.5 52q0 19 11 38.5t37 49.5l2 2q-63 6 -112.5 41t-77.5 92t-28 129q0 78 31 137.5t86 91.5t125 32
q66 0 118.5 -32t82.5 -90t30 -134q0 -17 -1 -25zM191.5 403q-40.5 -37 -50.5 -104h293q-9 70 -47 105.5t-95 35.5q-60 0 -100.5 -37z" />
    <glyph glyph-name="j.latnNLD" horiz-adv-x="237" 
d="M161 -72v577h-86v-572q0 -64 -47 -64h-17v-81h28q58 0 90 36t32 104zM249 738h-97l-97 -136h85z" />
    <glyph glyph-name="g.ss01" horiz-adv-x="572" 
d="M101 -178q-64 39 -64 101q0 35 23.5 64.5t64.5 43.5q-37 11 -57.5 33t-20.5 53q0 41 29 66.5t82 33.5q-38 21 -58.5 55t-20.5 76q0 48 28 86t77.5 59.5t110.5 21.5l63 -1q51 0 90 5.5t72 22.5l25 -67q-54 -22 -109 -25q32 -18 50 -47t18 -64q0 -47 -27.5 -83t-77.5 -56.5
t-114 -20.5q-80 0 -118.5 -10.5t-38.5 -42.5q0 -28 39.5 -37t123.5 -9h31q113 0 170 -41.5t57 -106.5q0 -67 -63.5 -108t-190.5 -41q-130 0 -194 39zM387.5 272.5q36.5 25.5 36.5 72.5t-36.5 73.5t-94.5 26.5q-60 0 -96.5 -26t-36.5 -74t36.5 -73t96.5 -25q58 0 94.5 25.5z
M423.5 -129q39.5 20 39.5 58q0 39 -39 58.5t-130 19.5q-172 0 -172 -78t172 -78q90 0 129.5 20z" />
    <glyph glyph-name="gbreve.ss01" horiz-adv-x="572" 
d="M37 -77q0 -62 64 -101t194 -39q127 0 190.5 41t63.5 108q0 65 -57 106.5t-170 41.5h-31q-84 0 -123.5 9t-39.5 37q0 32 38.5 42.5t118.5 10.5q64 0 114 20.5t77.5 56.5t27.5 83q0 35 -18 64t-50 47q55 3 109 25l-25 67q-33 -17 -72 -22.5t-90 -5.5l-63 1
q-61 0 -110.5 -21.5t-77.5 -59.5t-28 -86q0 -42 20.5 -76t58.5 -55q-53 -8 -82 -33.5t-29 -66.5q0 -31 20.5 -53t57.5 -33q-41 -14 -64.5 -43.5t-23.5 -64.5zM463 -71q0 -38 -39.5 -58t-129.5 -20q-172 0 -172 78t172 78q91 0 130 -19.5t39 -58.5zM424 345
q0 -47 -36.5 -72.5t-94.5 -25.5q-60 0 -96.5 25t-36.5 73t36.5 74t96.5 26q58 0 94.5 -26.5t36.5 -73.5zM133 738q2 -65 46 -102.5t111 -37.5t111 37.5t46 102.5h-77q-1 -36 -22.5 -55t-57.5 -19t-57 18.5t-22 55.5h-78z" />
    <glyph glyph-name="gcaron.ss01" horiz-adv-x="572" 
d="M37 -77q0 -62 64 -101t194 -39q127 0 190.5 41t63.5 108q0 65 -57 106.5t-170 41.5h-31q-84 0 -123.5 9t-39.5 37q0 32 38.5 42.5t118.5 10.5q64 0 114 20.5t77.5 56.5t27.5 83q0 35 -18 64t-50 47q55 3 109 25l-25 67q-33 -17 -72 -22.5t-90 -5.5l-63 1
q-61 0 -110.5 -21.5t-77.5 -59.5t-28 -86q0 -42 20.5 -76t58.5 -55q-53 -8 -82 -33.5t-29 -66.5q0 -31 20.5 -53t57.5 -33q-41 -14 -64.5 -43.5t-23.5 -64.5zM463 -71q0 -38 -39.5 -58t-129.5 -20q-172 0 -172 78t172 78q91 0 130 -19.5t39 -58.5zM424 345
q0 -47 -36.5 -72.5t-94.5 -25.5q-60 0 -96.5 25t-36.5 73t36.5 74t96.5 26q58 0 94.5 -26.5t36.5 -73.5zM252 602h77l132 136h-98q-20 -21 -43 -47.5t-28 -34.5h-3q-3 8 -26.5 34.5t-43.5 47.5h-99z" />
    <glyph glyph-name="gcircumflex.ss01" horiz-adv-x="572" 
d="M37 -77q0 -62 64 -101t194 -39q127 0 190.5 41t63.5 108q0 65 -57 106.5t-170 41.5h-31q-84 0 -123.5 9t-39.5 37q0 32 38.5 42.5t118.5 10.5q64 0 114 20.5t77.5 56.5t27.5 83q0 35 -18 64t-50 47q55 3 109 25l-25 67q-33 -17 -72 -22.5t-90 -5.5l-63 1
q-61 0 -110.5 -21.5t-77.5 -59.5t-28 -86q0 -42 20.5 -76t58.5 -55q-53 -8 -82 -33.5t-29 -66.5q0 -31 20.5 -53t57.5 -33q-41 -14 -64.5 -43.5t-23.5 -64.5zM463 -71q0 -38 -39.5 -58t-129.5 -20q-172 0 -172 78t172 78q91 0 130 -19.5t39 -58.5zM424 345
q0 -47 -36.5 -72.5t-94.5 -25.5q-60 0 -96.5 25t-36.5 73t36.5 74t96.5 26q58 0 94.5 -26.5t36.5 -73.5zM121 602h98q20 21 43 47.5t27 34.5h3q4 -8 27.5 -34.5t43.5 -47.5h98l-132 136h-76z" />
    <glyph glyph-name="uni0123.ss01" horiz-adv-x="572" 
d="M37 -77q0 -62 64 -101t194 -39q127 0 190.5 41t63.5 108q0 65 -57 106.5t-170 41.5h-31q-84 0 -123.5 9t-39.5 37q0 32 38.5 42.5t118.5 10.5q64 0 114 20.5t77.5 56.5t27.5 83q0 35 -18 64t-50 47q55 3 109 25l-25 67q-33 -17 -72 -22.5t-90 -5.5l-63 1
q-61 0 -110.5 -21.5t-77.5 -59.5t-28 -86q0 -42 20.5 -76t58.5 -55q-53 -8 -82 -33.5t-29 -66.5q0 -31 20.5 -53t57.5 -33q-41 -14 -64.5 -43.5t-23.5 -64.5zM463 -71q0 -38 -39.5 -58t-129.5 -20q-172 0 -172 78t172 78q91 0 130 -19.5t39 -58.5zM424 345
q0 -47 -36.5 -72.5t-94.5 -25.5q-60 0 -96.5 25t-36.5 73t36.5 74t96.5 26q58 0 94.5 -26.5t36.5 -73.5zM307 690l44 62l-46 28l-53 -79q-13 -20 -17.5 -32.5t-4.5 -24.5q0 -22 17 -36t43 -14q25 0 41.5 14t16.5 36q0 17 -11 29.5t-30 16.5z" />
    <glyph glyph-name="gdotaccent.ss01" horiz-adv-x="572" 
d="M37 -77q0 -62 64 -101t194 -39q127 0 190.5 41t63.5 108q0 65 -57 106.5t-170 41.5h-31q-84 0 -123.5 9t-39.5 37q0 32 38.5 42.5t118.5 10.5q64 0 114 20.5t77.5 56.5t27.5 83q0 35 -18 64t-50 47q55 3 109 25l-25 67q-33 -17 -72 -22.5t-90 -5.5l-63 1
q-61 0 -110.5 -21.5t-77.5 -59.5t-28 -86q0 -42 20.5 -76t58.5 -55q-53 -8 -82 -33.5t-29 -66.5q0 -31 20.5 -53t57.5 -33q-41 -14 -64.5 -43.5t-23.5 -64.5zM463 -71q0 -38 -39.5 -58t-129.5 -20q-172 0 -172 78t172 78q91 0 130 -19.5t39 -58.5zM424 345
q0 -47 -36.5 -72.5t-94.5 -25.5q-60 0 -96.5 25t-36.5 73t36.5 74t96.5 26q58 0 94.5 -26.5t36.5 -73.5zM230 682q0 -27 17 -43.5t43 -16.5q27 0 44.5 16.5t17.5 43.5q0 25 -18 42t-44 17t-43 -17t-17 -42z" />
    <glyph glyph-name="a.ss02" horiz-adv-x="623" 
d="M461 505h86v-505h-86v95q-27 -48 -71.5 -76t-104.5 -28q-66 0 -119.5 33t-84 93t-30.5 136t31 135.5t84 92.5t119 33q61 0 105 -28t71 -77v96zM418.5 118q44.5 49 44.5 135q0 85 -45 134t-117 49q-73 0 -118 -49t-45 -134t45 -134.5t118 -49.5t117.5 49z" />
    <glyph glyph-name="aacute.ss02" horiz-adv-x="623" 
d="M461 505v-96q-27 49 -71 77t-105 28q-66 0 -119 -33t-84 -92.5t-31 -135.5t30.5 -136t84 -93t119.5 -33q60 0 104.5 28t71.5 76v-95h86v505h-86zM463 253q0 -86 -44.5 -135t-117.5 -49t-118 49.5t-45 134.5t45 134t118 49q72 0 117 -49t45 -134zM443 738h-97l-97 -136h85
z" />
    <glyph glyph-name="abreve.ss02" horiz-adv-x="623" 
d="M461 505v-96q-27 49 -71 77t-105 28q-66 0 -119 -33t-84 -92.5t-31 -135.5t30.5 -136t84 -93t119.5 -33q60 0 104.5 28t71.5 76v-95h86v505h-86zM463 253q0 -86 -44.5 -135t-117.5 -49t-118 49.5t-45 134.5t45 134t118 49q72 0 117 -49t45 -134zM154 738q2 -65 46 -102.5
t111 -37.5t111 37.5t46 102.5h-77q-1 -36 -22.5 -55t-57.5 -19t-57 18.5t-22 55.5h-78z" />
    <glyph glyph-name="uni1EAF.ss02" horiz-adv-x="623" 
d="M461 505v-96q-27 49 -71 77t-105 28q-66 0 -119 -33t-84 -92.5t-31 -135.5t30.5 -136t84 -93t119.5 -33q60 0 104.5 28t71.5 76v-95h86v505h-86zM463 253q0 -86 -44.5 -135t-117.5 -49t-118 49.5t-45 134.5t45 134t118 49q72 0 117 -49t45 -134zM154 726q2 -64 46 -101.5
t111 -37.5t111 37.5t46 101.5h-77q-1 -36 -23 -55t-57 -19t-57 19t-23 55h-77zM338 747l78 101h-97l-65 -101h84z" />
    <glyph glyph-name="uni1EB7.ss02" horiz-adv-x="623" 
d="M461 505v-96q-27 49 -71 77t-105 28q-66 0 -119 -33t-84 -92.5t-31 -135.5t30.5 -136t84 -93t119.5 -33q60 0 104.5 28t71.5 76v-95h86v505h-86zM463 253q0 -86 -44.5 -135t-117.5 -49t-118 49.5t-45 134.5t45 134t118 49q72 0 117 -49t45 -134zM154 738q2 -65 46 -102.5
t111 -37.5t111 37.5t46 102.5h-77q-1 -36 -22.5 -55t-57.5 -19t-57 18.5t-22 55.5h-78zM251 -122q0 -26 17 -42.5t43 -16.5q27 0 44.5 16.5t17.5 42.5t-18 43t-44 17t-43 -17t-17 -43z" />
    <glyph glyph-name="uni1EB1.ss02" horiz-adv-x="623" 
d="M461 505v-96q-27 49 -71 77t-105 28q-66 0 -119 -33t-84 -92.5t-31 -135.5t30.5 -136t84 -93t119.5 -33q60 0 104.5 28t71.5 76v-95h86v505h-86zM463 253q0 -86 -44.5 -135t-117.5 -49t-118 49.5t-45 134.5t45 134t118 49q72 0 117 -49t45 -134zM154 726q2 -64 46 -101.5
t111 -37.5t111 37.5t46 101.5h-77q-1 -36 -23 -55t-57 -19t-57 19t-23 55h-77zM368 747l-64 101h-97l78 -101h83z" />
    <glyph glyph-name="uni1EB3.ss02" horiz-adv-x="623" 
d="M461 505v-96q-27 49 -71 77t-105 28q-66 0 -119 -33t-84 -92.5t-31 -135.5t30.5 -136t84 -93t119.5 -33q60 0 104.5 28t71.5 76v-95h86v505h-86zM463 253q0 -86 -44.5 -135t-117.5 -49t-118 49.5t-45 134.5t45 134t118 49q72 0 117 -49t45 -134zM155 726q2 -64 46 -101.5
t111 -37.5t111 37.5t46 101.5h-77q-1 -36 -23 -55t-57 -19t-57 19t-23 55h-77zM280 759h74q37 43 37 82q0 33 -26.5 56t-69.5 23q-28 0 -52.5 -11.5t-40.5 -33.5l44 -45q10 10 21.5 16t22.5 6q13 0 20 -6.5t7 -18.5q0 -21 -37 -68z" />
    <glyph glyph-name="uni1EB5.ss02" horiz-adv-x="623" 
d="M461 505v-96q-27 49 -71 77t-105 28q-66 0 -119 -33t-84 -92.5t-31 -135.5t30.5 -136t84 -93t119.5 -33q60 0 104.5 28t71.5 76v-95h86v505h-86zM463 253q0 -86 -44.5 -135t-117.5 -49t-118 49.5t-45 134.5t45 134t118 49q72 0 117 -49t45 -134zM155 726q1 -64 45 -101.5
t111 -37.5t111 37.5t46 101.5h-77q-1 -36 -23 -55t-57 -19t-56.5 19t-22.5 55h-77zM292 793q20 -13 38.5 -20.5t45.5 -7.5q39 0 68 27t29 77h-72q0 -19 -8.5 -29t-22.5 -10q-9 0 -17 4t-21 12q-20 13 -38.5 20.5t-45.5 7.5q-39 0 -68.5 -27.5t-29.5 -77.5h73q0 20 8.5 30
t22.5 10q9 0 17 -4t21 -12z" />
    <glyph glyph-name="uni01CE.ss02" horiz-adv-x="623" 
d="M461 505v-96q-27 49 -71 77t-105 28q-66 0 -119 -33t-84 -92.5t-31 -135.5t30.5 -136t84 -93t119.5 -33q60 0 104.5 28t71.5 76v-95h86v505h-86zM463 253q0 -86 -44.5 -135t-117.5 -49t-118 49.5t-45 134.5t45 134t118 49q72 0 117 -49t45 -134zM273 602h77l132 136h-98
q-20 -21 -43 -47.5t-28 -34.5h-3q-3 8 -26.5 34.5t-43.5 47.5h-99z" />
    <glyph glyph-name="acircumflex.ss02" horiz-adv-x="623" 
d="M461 505v-96q-27 49 -71 77t-105 28q-66 0 -119 -33t-84 -92.5t-31 -135.5t30.5 -136t84 -93t119.5 -33q60 0 104.5 28t71.5 76v-95h86v505h-86zM463 253q0 -86 -44.5 -135t-117.5 -49t-118 49.5t-45 134.5t45 134t118 49q72 0 117 -49t45 -134zM142 602h98
q20 21 43 47.5t27 34.5h3q4 -8 27.5 -34.5t43.5 -47.5h98l-132 136h-76z" />
    <glyph glyph-name="uni1EA5.ss02" horiz-adv-x="623" 
d="M461 505v-96q-27 49 -71 77t-105 28q-66 0 -119 -33t-84 -92.5t-31 -135.5t30.5 -136t84 -93t119.5 -33q60 0 104.5 28t71.5 76v-95h86v505h-86zM463 253q0 -86 -44.5 -135t-117.5 -49t-118 49.5t-45 134.5t45 134t118 49q72 0 117 -49t45 -134zM142 587h99
q20 21 42.5 47.5t27.5 34.5h3q3 -7 27 -34t44 -48h98l-132 136h-77zM586 804h-95l-64 -113h81z" />
    <glyph glyph-name="uni1EAD.ss02" horiz-adv-x="623" 
d="M461 505v-96q-27 49 -71 77t-105 28q-66 0 -119 -33t-84 -92.5t-31 -135.5t30.5 -136t84 -93t119.5 -33q60 0 104.5 28t71.5 76v-95h86v505h-86zM463 253q0 -86 -44.5 -135t-117.5 -49t-118 49.5t-45 134.5t45 134t118 49q72 0 117 -49t45 -134zM142 602h98
q20 21 43 47.5t27 34.5h3q4 -8 27.5 -34.5t43.5 -47.5h98l-132 136h-76zM251 -122q0 -26 17 -42.5t43 -16.5q27 0 44.5 16.5t17.5 42.5t-18 43t-44 17t-43 -17t-17 -43z" />
    <glyph glyph-name="uni1EA7.ss02" horiz-adv-x="623" 
d="M461 505v-96q-27 49 -71 77t-105 28q-66 0 -119 -33t-84 -92.5t-31 -135.5t30.5 -136t84 -93t119.5 -33q60 0 104.5 28t71.5 76v-95h86v505h-86zM463 253q0 -86 -44.5 -135t-117.5 -49t-118 49.5t-45 134.5t45 134t118 49q72 0 117 -49t45 -134zM141 587h99
q20 21 42.5 47.5t27.5 34.5h3q3 -7 27 -34t44 -48h98l-132 136h-77zM525 691l-65 113h-94l78 -113h81z" />
    <glyph glyph-name="uni1EA9.ss02" horiz-adv-x="623" 
d="M461 505v-96q-27 49 -71 77t-105 28q-66 0 -119 -33t-84 -92.5t-31 -135.5t30.5 -136t84 -93t119.5 -33q60 0 104.5 28t71.5 76v-95h86v505h-86zM463 253q0 -86 -44.5 -135t-117.5 -49t-118 49.5t-45 134.5t45 134t118 49q72 0 117 -49t45 -134zM141 587h99
q20 21 42.5 47.5t27.5 34.5h3q3 -7 27 -34t44 -48h98l-132 136h-77zM414 698h74q37 43 37 82q0 33 -26.5 56t-69.5 23q-28 0 -53 -11.5t-41 -33.5l45 -45q9 10 20.5 16.5t22.5 6.5q13 0 20.5 -7t7.5 -18q0 -22 -37 -69z" />
    <glyph glyph-name="uni1EAB.ss02" horiz-adv-x="623" 
d="M461 505v-96q-27 49 -71 77t-105 28q-66 0 -119 -33t-84 -92.5t-31 -135.5t30.5 -136t84 -93t119.5 -33q60 0 104.5 28t71.5 76v-95h86v505h-86zM463 253q0 -86 -44.5 -135t-117.5 -49t-118 49.5t-45 134.5t45 134t118 49q72 0 117 -49t45 -134zM293 790q22 -13 40 -20
t44 -7q39 0 68.5 27.5t29.5 78.5h-73q0 -19 -8.5 -29t-21.5 -10q-9 0 -17.5 4t-21.5 12q-19 13 -37.5 20.5t-45.5 7.5q-40 0 -69 -28t-29 -79h72q0 20 8.5 29.5t22.5 9.5q9 0 17 -4t21 -12zM141 587h99q19 21 42 47.5t28 34.5h3q5 -11 70 -82h99l-132 136h-77z" />
    <glyph glyph-name="adieresis.ss02" horiz-adv-x="623" 
d="M461 505v-96q-27 49 -71 77t-105 28q-66 0 -119 -33t-84 -92.5t-31 -135.5t30.5 -136t84 -93t119.5 -33q60 0 104.5 28t71.5 76v-95h86v505h-86zM463 253q0 -86 -44.5 -135t-117.5 -49t-118 49.5t-45 134.5t45 134t118 49q72 0 117 -49t45 -134zM143 677q0 -25 16 -40
t40 -15t40 15t16 40t-16 40t-40 15t-40 -15t-16 -40zM367 677q0 -25 16 -40t40 -15t40 15t16 40t-16 40t-40 15t-40 -15t-16 -40z" />
    <glyph glyph-name="uni1EA1.ss02" horiz-adv-x="623" 
d="M461 505v-96q-27 49 -71 77t-105 28q-66 0 -119 -33t-84 -92.5t-31 -135.5t30.5 -136t84 -93t119.5 -33q60 0 104.5 28t71.5 76v-95h86v505h-86zM463 253q0 -86 -44.5 -135t-117.5 -49t-118 49.5t-45 134.5t45 134t118 49q72 0 117 -49t45 -134zM251 -122q0 -26 17 -42.5
t43 -16.5q27 0 44.5 16.5t17.5 42.5t-18 43t-44 17t-43 -17t-17 -43z" />
    <glyph glyph-name="agrave.ss02" horiz-adv-x="623" 
d="M461 505v-96q-27 49 -71 77t-105 28q-66 0 -119 -33t-84 -92.5t-31 -135.5t30.5 -136t84 -93t119.5 -33q60 0 104.5 28t71.5 76v-95h86v505h-86zM463 253q0 -86 -44.5 -135t-117.5 -49t-118 49.5t-45 134.5t45 134t118 49q72 0 117 -49t45 -134zM374 602l-97 136h-97
l109 -136h85z" />
    <glyph glyph-name="uni1EA3.ss02" horiz-adv-x="623" 
d="M461 505v-96q-27 49 -71 77t-105 28q-66 0 -119 -33t-84 -92.5t-31 -135.5t30.5 -136t84 -93t119.5 -33q60 0 104.5 28t71.5 76v-95h86v505h-86zM463 253q0 -86 -44.5 -135t-117.5 -49t-118 49.5t-45 134.5t45 134t118 49q72 0 117 -49t45 -134zM295 597h74q37 43 37 82
q0 33 -26.5 56t-69.5 23q-28 0 -52.5 -11.5t-41.5 -33.5l45 -45q10 10 21.5 16.5t21.5 6.5q13 0 20.5 -7t7.5 -18q0 -22 -37 -69z" />
    <glyph glyph-name="amacron.ss02" horiz-adv-x="623" 
d="M461 505v-96q-27 49 -71 77t-105 28q-66 0 -119 -33t-84 -92.5t-31 -135.5t30.5 -136t84 -93t119.5 -33q60 0 104.5 28t71.5 76v-95h86v505h-86zM463 253q0 -86 -44.5 -135t-117.5 -49t-118 49.5t-45 134.5t45 134t118 49q72 0 117 -49t45 -134zM468 636v72h-313v-72h313
z" />
    <glyph glyph-name="aogonek.ss02" horiz-adv-x="623" 
d="M563 -97v-75h-52q-45 0 -70.5 21t-25.5 53q0 41 38 75l26 23h-18v95q-27 -48 -71.5 -76t-104.5 -28q-66 0 -119.5 33t-84 93t-30.5 136t31 135.5t84 92.5t119 33q61 0 105 -28t71 -77v96h86v-505h1l-32 -34q-19 -20 -19 -38q0 -11 8 -18t23 -7h35zM418.5 118
q44.5 49 44.5 135q0 85 -45 134t-117 49q-73 0 -118 -49t-45 -134t45 -134.5t118 -49.5t117.5 49z" />
    <glyph glyph-name="aring.ss02" horiz-adv-x="623" 
d="M461 505v-96q-27 49 -71 77t-105 28q-66 0 -119 -33t-84 -92.5t-31 -135.5t30.5 -136t84 -93t119.5 -33q60 0 104.5 28t71.5 76v-95h86v505h-86zM463 253q0 -86 -44.5 -135t-117.5 -49t-118 49.5t-45 134.5t45 134t118 49q72 0 117 -49t45 -134zM190 680q0 -45 34.5 -74
t87.5 -29t87.5 29t34.5 74q0 46 -34.5 75.5t-87.5 29.5t-87.5 -29.5t-34.5 -75.5zM369 680q0 -21 -15 -33.5t-42 -12.5q-26 0 -41 12.5t-15 33.5t15 34t41 13q27 0 42 -13t15 -34z" />
    <glyph glyph-name="atilde.ss02" horiz-adv-x="623" 
d="M461 505v-96q-27 49 -71 77t-105 28q-66 0 -119 -33t-84 -92.5t-31 -135.5t30.5 -136t84 -93t119.5 -33q60 0 104.5 28t71.5 76v-95h86v505h-86zM463 253q0 -86 -44.5 -135t-117.5 -49t-118 49.5t-45 134.5t45 134t118 49q72 0 117 -49t45 -134zM294 641q22 -17 40 -26.5
t44 -9.5q41 0 70.5 30.5t29.5 91.5h-73q0 -52 -30 -52q-9 0 -17 5t-22 16q-19 17 -38 27t-46 10q-41 0 -70.5 -31t-29.5 -92h73q0 52 31 52q9 0 17 -5t21 -16z" />
    <glyph glyph-name="l.ss03" horiz-adv-x="237" 
d="M75 750h87v-750h-87v750z" />
    <glyph glyph-name="lacute.ss03" horiz-adv-x="237" 
d="M75 750v-750h87v750h-87zM250 973h-97l-97 -136h85z" />
    <glyph glyph-name="lcaron.ss03" horiz-adv-x="275" 
d="M75 750v-750h87v750h-87zM219 547h54l23 105v98h-77v-203z" />
    <glyph glyph-name="uni013C.ss03" horiz-adv-x="237" 
d="M75 750v-750h87v750h-87zM177 -115q0 22 -17 36.5t-43 14.5q-25 0 -41.5 -14t-16.5 -36q0 -17 11.5 -29.5t31.5 -16.5l-42 -61l46 -27l50 77q21 31 21 56z" />
    <glyph glyph-name="ldot.ss03" horiz-adv-x="377" 
d="M75 750h87v-750h-87v750zM264 321.5q-17 16.5 -17 41.5q0 26 17 42.5t42 16.5q26 0 43.5 -16.5t17.5 -42.5q0 -25 -17.5 -41.5t-43.5 -16.5q-25 0 -42 16.5z" />
    <glyph glyph-name="uni1E37.ss03" horiz-adv-x="237" 
d="M75 750v-750h87v750h-87zM58 -122q0 -26 17 -42.5t43 -16.5q27 0 44.5 16.5t17.5 42.5t-18 43t-44 17t-43 -17t-17 -43z" />
    <glyph glyph-name="uni1E39.ss03" horiz-adv-x="237" 
d="M75 750v-750h87v750h-87zM276 871v72h-313v-72h313zM58 -122q0 -26 17 -42.5t43 -16.5q27 0 44.5 16.5t17.5 42.5t-18 43t-44 17t-43 -17t-17 -43z" />
    <glyph glyph-name="uni01C9.ss03" horiz-adv-x="434" 
d="M75 750v-750h87v750h-87zM358 -72v577h-86v-572q0 -64 -47 -64h-17v-81h28q58 0 90 36t32 104zM255 682q0 -27 17 -43.5t43 -16.5q27 0 44.5 16.5t17.5 43.5q0 25 -18 42t-44 17t-43 -17t-17 -42z" />
    <glyph glyph-name="uni1E3B.ss03" horiz-adv-x="237" 
d="M75 750v-750h87v750h-87zM275 -142v72h-313v-72h313z" />
    <glyph glyph-name="lslash.ss03" horiz-adv-x="340" 
d="M211 426l94 29v-77l-94 -29v-349h-86v328l-85 -26v77l85 26v345h86v-324z" />
    <glyph glyph-name="fi" unicode="&#xfb01;" horiz-adv-x="549" 
d="M272 682h51v76h-60q-70 0 -107.5 -41t-37.5 -108v-104h-84v-73h84v-432h86v432h119v73h-119v99q0 78 68 78zM387 505v-505h86v505h-86zM370 682q0 -27 17 -43.5t43 -16.5q27 0 44.5 16.5t17.5 43.5q0 25 -18 42t-44 17t-43 -17t-17 -42z" />
    <glyph glyph-name="fl" unicode="&#xfb02;" horiz-adv-x="601" 
d="M272 682h51v76h-60q-70 0 -107.5 -41t-37.5 -108v-104h-84v-73h84v-432h86v432h119v73h-119v99q0 78 68 78zM520 0h54v76h-42q-30 0 -43.5 16t-13.5 48v610h-86v-615q0 -61 34 -98t97 -37z" />
    <glyph glyph-name="L_periodcentered.latnCAT" horiz-adv-x="559" 
d="M177 700h-90v-700h440v83h-350v617zM348 354q0 -26 17.5 -42.5t43.5 -16.5t43.5 16.5t17.5 42.5t-17.5 42.5t-43.5 16.5t-43.5 -16.5t-17.5 -42.5z" />
    <glyph glyph-name="l_periodcentered.latnCAT" horiz-adv-x="377" 
d="M208 0h54v76h-42q-30 0 -43.5 16t-13.5 48v610h-86v-615q0 -61 34 -98t97 -37zM249 363q0 -25 16.5 -41.5t42.5 -16.5t43.5 16.5t17.5 41.5q0 26 -17.5 42.5t-43.5 16.5t-42.5 -16.5t-16.5 -42.5z" />
    <glyph glyph-name="fl.ss03" horiz-adv-x="549" 
d="M272 682h51v76h-60q-70 0 -107.5 -41t-37.5 -108v-104h-84v-73h84v-432h86v432h119v73h-119v99q0 78 68 78zM387 750v-750h87v750h-87z" />
    <glyph glyph-name="l_periodcentered.latnCAT.ss03" horiz-adv-x="377" 
d="M75 750v-750h87v750h-87zM247 363q0 -25 17 -41.5t42 -16.5q26 0 43.5 16.5t17.5 41.5q0 26 -17.5 42.5t-43.5 16.5q-25 0 -42 -16.5t-17 -42.5z" />
    <glyph glyph-name="ordfeminine" unicode="&#xaa;" horiz-adv-x="367" 
d="M264.5 682.5q34.5 -26.5 34.5 -77.5v-165h-61v24q-26 -31 -81 -31q-47 0 -76 22t-29 60q0 37 30 59t80 22q46 0 72 -23v26q0 26 -15 39t-42 13q-43 0 -59 -30l-54 21q12 34 42.5 50.5t72.5 16.5q51 0 85.5 -26.5zM220 488.5q16 9.5 16 26.5t-16 27t-43 10
q-26 0 -42.5 -9.5t-16.5 -27.5q0 -17 16.5 -26.5t42.5 -9.5q27 0 43 9.5z" />
    <glyph glyph-name="ordmasculine" unicode="&#xba;" horiz-adv-x="379" 
d="M290 670.5q40 -38.5 40 -98.5q0 -61 -40 -100t-101 -39t-100.5 39t-39.5 100q0 60 39.5 98.5t100.5 38.5t101 -38.5zM136.5 629.5q-20.5 -20.5 -20.5 -57.5q0 -38 20 -59t53 -21t53 21t20 59q0 37 -20.5 57.5t-52.5 20.5t-52.5 -20.5z" />
    <glyph glyph-name="ordfeminine.ss02" horiz-adv-x="397" 
d="M260 703h65v-263h-65v41q-30 -47 -87 -47q-54 0 -88.5 39t-34.5 99q0 59 34.5 98t88.5 39q57 0 87 -47v41zM241 514.5q20 21.5 20 57.5q0 34 -20 55.5t-52 21.5t-51.5 -21t-19.5 -56q0 -36 19.5 -57.5t51.5 -21.5t52 21.5z" />
    <glyph glyph-name="uni2090" horiz-adv-x="363" 
d="M272 132q40 -31 40 -91v-190h-61v29q-28 -36 -93 -36q-52 0 -86 25.5t-34 69.5q0 43 35 69t89 26q56 0 86 -30v32q0 35 -21 52.5t-56 17.5q-26 0 -45 -11t-30 -29l-45 36q36 61 122 61q59 0 99 -31zM229.5 -95.5q20.5 12.5 20.5 35.5q0 21 -20.5 34t-51.5 13
q-32 0 -52.5 -12.5t-20.5 -34.5q0 -23 20.5 -35.5t52.5 -12.5q31 0 51.5 12.5z" />
    <glyph glyph-name="uni2091" horiz-adv-x="369" 
d="M329 -12h-223q4 -43 27.5 -65.5t60.5 -22.5q55 0 82 41l46 -37q-23 -31 -56.5 -45.5t-73.5 -14.5q-67 0 -109.5 44.5t-42.5 115.5t41 115t107 44q62 0 102 -43.5t40 -113.5q0 -13 -1 -18zM134 90q-21 -19 -27 -56h157q-6 38 -26 56.5t-50 18.5q-33 0 -54 -19z" />
    <glyph glyph-name="uni2092" horiz-adv-x="390" 
d="M115.5 -136q-35.5 20 -56 56.5t-20.5 83.5q0 46 20.5 82.5t56 56.5t79.5 20q68 0 112 -44.5t44 -114.5t-44 -115t-112 -45q-44 0 -79.5 20zM260 -70.5q25 27.5 25 74.5q0 46 -25 73.5t-65 27.5q-39 0 -64.5 -27.5t-25.5 -73.5q0 -47 25.5 -74.5t64.5 -27.5q40 0 65 27.5z
" />
    <glyph glyph-name="uni2094" horiz-adv-x="369" 
d="M286 118.5q43 -44.5 43 -115.5t-41.5 -115t-106.5 -44q-63 0 -103 44t-40 113q0 13 1 18h223q-4 42 -27.5 65t-59.5 23q-56 0 -83 -41l-45 37q22 31 56 45.5t73 14.5q67 0 110 -44.5zM233.5 -84q20.5 19 27.5 56h-156q6 -37 26 -56t50 -19q32 0 52.5 19z" />
    <glyph glyph-name="uni2093" horiz-adv-x="348" 
d="M212 7l117 -156h-76l-79 105l-80 -105h-75l117 155l-113 150h77l74 -99l75 99h75z" />
    <glyph glyph-name="uni2090.ss02" horiz-adv-x="399" 
d="M280 156h65v-305h-65v50q-35 -57 -101 -57q-39 0 -71 20.5t-50 57t-18 82.5t18 82t50 56.5t71 20.5q67 0 101 -58v51zM257 -70.5q24 27.5 24 74.5t-24 74t-64 27q-39 0 -63 -27t-24 -74t24 -74.5t63 -27.5q40 0 64 27.5z" />
    <glyph glyph-name="uni0410" unicode="&#x410;" horiz-adv-x="691" 
d="M669 0l-280 700h-86l-280 -700h94l80 208h296l80 -208h96zM228 287l88 228q27 67 27 88h4q0 -21 27 -88l88 -228h-234z" />
    <glyph glyph-name="uni0411" unicode="&#x411;" horiz-adv-x="636" 
d="M366 412q103 0 165 -54t62 -151q0 -98 -62 -152.5t-165 -54.5h-279v700h460v-82h-371v-206h190zM358 81q141 0 141 126q0 125 -141 125h-182v-251h182z" />
    <glyph glyph-name="uni0412" unicode="&#x412;" horiz-adv-x="669" 
d="M619 199q0 66 -37.5 110.5t-103.5 61.5q49 18 77.5 55.5t28.5 89.5q0 92 -62.5 138t-173.5 46h-261v-700h284q115 0 181.5 50.5t66.5 148.5zM369 81h-192v245h192q76 0 116 -28.5t40 -94.5q0 -65 -40 -93.5t-116 -28.5zM177 619h168q70 0 108 -24t38 -83q0 -60 -38 -84
t-108 -24h-168v215z" />
    <glyph glyph-name="uni0413" unicode="&#x413;" horiz-adv-x="559" 
d="M527 617v83h-440v-700h90v617h350z" />
    <glyph glyph-name="uni0403" unicode="&#x403;" horiz-adv-x="559" 
d="M527 617v83h-440v-700h90v617h350zM438 933h-97l-97 -136h85z" />
    <glyph glyph-name="uni0490" unicode="&#x490;" horiz-adv-x="565" 
d="M447 700v147h86v-230h-356v-617h-90v700h360z" />
    <glyph glyph-name="uni0414" unicode="&#x414;" horiz-adv-x="746" 
d="M630 82h72v-230h-86v148h-500v-148h-85v230h60q34 16 49.5 73.5t17.5 183.5l9 361h463v-618zM540 82v536h-288l-6 -301q-2 -88 -16.5 -145.5t-41.5 -89.5h352z" />
    <glyph glyph-name="uni0415" unicode="&#x415;" horiz-adv-x="615" 
d="M560 700h-473v-700h473v82h-383v232h343v81h-343v223h383v82z" />
    <glyph glyph-name="uni0400" unicode="&#x400;" horiz-adv-x="615" 
d="M560 700h-473v-700h473v82h-383v232h343v81h-343v223h383v82zM387 797l-97 136h-97l109 -136h85z" />
    <glyph glyph-name="uni0401" unicode="&#x401;" horiz-adv-x="615" 
d="M560 700h-473v-700h473v82h-383v232h343v81h-343v223h383v82zM156 872q0 -25 16 -40t40 -15t40 15t16 40t-16 40t-40 15t-40 -15t-16 -40zM380 872q0 -25 16 -40t40 -15t40 15t16 40t-16 40t-40 15t-40 -15t-16 -40z" />
    <glyph glyph-name="uni0416" unicode="&#x416;" horiz-adv-x="961" 
d="M617 357l341 -357h-114l-318 331v-331h-90v332l-319 -332h-114l341 357l-313 343h107l298 -331v331h90v-330l297 330h107z" />
    <glyph glyph-name="uni0417" unicode="&#x417;" horiz-adv-x="634" 
d="M541 301.5q40 -44.5 40 -109.5q0 -70 -39.5 -115t-102 -65.5t-134.5 -20.5q-86 0 -159 40.5t-107 120.5l74 41q20 -58 75 -88.5t116 -30.5q78 0 130.5 29t52.5 92q0 64 -51 93.5t-139 29.5h-85v80h83q80 0 123 28t43 86q0 52 -42.5 83t-114.5 31q-122 0 -174 -102l-71 39
q32 71 96 108.5t154 37.5q72 0 128 -24t87 -67.5t31 -100.5t-34 -97.5t-96 -56.5q76 -17 116 -61.5z" />
    <glyph glyph-name="uni0418" unicode="&#x418;" horiz-adv-x="750" 
d="M176 241q0 -81 -6 -102l3 -1q7 18 56 86l356 476h78v-700h-90v459q0 81 6 102l-3 1q-7 -18 -56 -86l-354 -476h-79v700h89v-459z" />
    <glyph glyph-name="uni0419" unicode="&#x419;" horiz-adv-x="750" 
d="M176 241v459h-89v-700h79l354 476q49 68 56 86l3 -1q-6 -21 -6 -102v-459h90v700h-78l-356 -476q-49 -68 -56 -86l-3 1q6 21 6 102zM218 933q2 -65 46 -102.5t111 -37.5t111 37.5t46 102.5h-77q-1 -36 -22.5 -55t-57.5 -19t-57 18.5t-22 55.5h-78z" />
    <glyph glyph-name="uni040D" unicode="&#x40d;" horiz-adv-x="750" 
d="M176 241v459h-89v-700h79l354 476q49 68 56 86l3 -1q-6 -21 -6 -102v-459h90v700h-78l-356 -476q-49 -68 -56 -86l-3 1q6 21 6 102zM438 797l-97 136h-97l109 -136h85z" />
    <glyph glyph-name="uni041A" unicode="&#x41a;" horiz-adv-x="648" 
d="M277 356l344 344h-118l-326 -333v333h-90v-700h90v334l345 -334h124z" />
    <glyph glyph-name="uni040C" unicode="&#x40c;" horiz-adv-x="648" 
d="M277 356l344 344h-118l-326 -333v333h-90v-700h90v334l345 -334h124zM463 933h-97l-97 -136h85z" />
    <glyph glyph-name="uni041B" unicode="&#x41b;" horiz-adv-x="717" 
d="M31 73q38 12 60.5 33t34.5 63t13 115l11 416h480v-700h-89v618h-305l-9 -347q-2 -93 -22.5 -149.5t-57 -86.5t-93.5 -45z" />
    <glyph glyph-name="uni041C" unicode="&#x41c;" horiz-adv-x="833" 
d="M418 356l-248 345h-83v-701h89v457q0 82 -6 103l3 1q6 -16 56 -87l180 -247h17l180 250q19 27 34.5 52.5t19.5 35.5l3 -1q-6 -21 -6 -104v-460h89v701h-82z" />
    <glyph glyph-name="uni041D" unicode="&#x41d;" horiz-adv-x="735" 
d="M558 394h-382v306h-89v-700h89v312h382v-312h90v700h-90v-306z" />
    <glyph glyph-name="uni041E" unicode="&#x41e;" horiz-adv-x="809" 
d="M53 350q0 -106 44.5 -187.5t125 -127t182.5 -45.5t182 45.5t124.5 127t44.5 187.5t-44.5 187.5t-124.5 127t-182 45.5t-182.5 -45.5t-125 -127t-44.5 -187.5zM662 350q0 -84 -33 -146t-91.5 -95.5t-132.5 -33.5t-132.5 33.5t-92 95.5t-33.5 146t33.5 146t92 95.5
t132.5 33.5t132.5 -33.5t91.5 -95.5t33 -146z" />
    <glyph glyph-name="uni041F" unicode="&#x41f;" horiz-adv-x="723" 
d="M87 700v-700h90v618h369v-618h90v700h-549z" />
    <glyph glyph-name="uni0420" unicode="&#x420;" horiz-adv-x="639" 
d="M596 475q0 105 -68.5 165t-188.5 60h-252v-700h89v250h164q119 0 187.5 60t68.5 165zM331 331h-155v287h155q82 0 126.5 -36.5t44.5 -106.5q0 -71 -44.5 -107.5t-126.5 -36.5z" />
    <glyph glyph-name="uni0421" unicode="&#x421;" horiz-adv-x="722" 
d="M54 350q0 -105 44 -187t122.5 -127.5t178.5 -45.5q96 0 171.5 44t117.5 124l-78 48q-31 -62 -86 -96.5t-125 -34.5q-72 0 -129 33.5t-89.5 95.5t-32.5 146t32.5 146t89.5 95.5t129 33.5q70 0 125 -34.5t86 -96.5l78 48q-42 80 -117.5 124t-171.5 44q-100 0 -178.5 -45.5
t-122.5 -127.5t-44 -187z" />
    <glyph glyph-name="uni0422" unicode="&#x422;" horiz-adv-x="605" 
d="M32 700v-83h226v-617h89v617h226v83h-541z" />
    <glyph glyph-name="uni0423" unicode="&#x423;" horiz-adv-x="658" 
d="M205 0l87 177l-261 523h100l178 -366q29 -58 29 -77h4q0 17 27 77l171 366h97l-336 -700h-96z" />
    <glyph glyph-name="uni040E" unicode="&#x40e;" horiz-adv-x="658" 
d="M205 0h96l336 700h-97l-171 -366q-27 -60 -27 -77h-4q0 19 -29 77l-178 366h-100l261 -523zM175 933q2 -65 46 -102.5t111 -37.5t111 37.5t46 102.5h-77q-1 -36 -22.5 -55t-57.5 -19t-57 18.5t-22 55.5h-78z" />
    <glyph glyph-name="uni0424" unicode="&#x424;" horiz-adv-x="855" 
d="M472 53q102 4 177 42t115 104.5t40 154.5t-40 154.5t-115 104.5t-177 42v72h-90v-72q-102 -4 -177 -42t-115 -104.5t-40 -154.5t40 -154.5t115 -104.5t177 -42v-75h90v75zM384 133q-116 5 -178 61.5t-62 159.5t61.5 160t178.5 61v-442zM471 133v442q117 -4 178 -61
t61 -160t-61.5 -160t-177.5 -61z" />
    <glyph glyph-name="uni0425" unicode="&#x425;" horiz-adv-x="660" 
d="M384 357l253 343h-104l-147 -196q-47 -65 -53 -84h-4q-3 12 -26.5 45t-27.5 39l-146 196h-106l254 -344l-264 -356h104l156 209q19 25 34.5 49.5t18.5 33.5h4q4 -13 55 -83l156 -209h106z" />
    <glyph glyph-name="uni0427" unicode="&#x427;" horiz-adv-x="654" 
d="M477 700h90v-700h-90v286q-82 -24 -162 -24q-119 0 -187 66t-68 182v190h89v-187q0 -82 44.5 -124.5t125.5 -42.5q82 0 158 20v334z" />
    <glyph glyph-name="uni0426" unicode="&#x426;" horiz-adv-x="742" 
d="M624 700v-618h74v-218h-86v136h-525v700h90v-618h358v618h89z" />
    <glyph glyph-name="uni0428" unicode="&#x428;" horiz-adv-x="1053" 
d="M876 82v618h90v-700h-879v700h90v-618h305v618h90v-618h304z" />
    <glyph glyph-name="uni0429" unicode="&#x429;" horiz-adv-x="1084" 
d="M966 700v-618h73v-218h-85v136h-867v700h90v-618h305v618h90v-618h304v618h90z" />
    <glyph glyph-name="uni040F" unicode="&#x40f;" horiz-adv-x="711" 
d="M535 700h89v-700h-225v-136h-86v136h-226v700h90v-618h358v618z" />
    <glyph glyph-name="uni042C" unicode="&#x42c;" horiz-adv-x="635" 
d="M353 427q109 0 174.5 -55t65.5 -154q0 -104 -65 -161t-175 -57h-266v700h89v-273h177zM346 81q153 0 153 137q0 128 -153 128h-170v-265h170z" />
    <glyph glyph-name="uni042A" unicode="&#x42a;" horiz-adv-x="738" 
d="M457 427q109 0 174.5 -55t65.5 -154q0 -104 -65 -161t-175 -57h-267v618h-155v82h245v-273h177zM450 81q152 0 152 137q0 128 -152 128h-170v-265h170z" />
    <glyph glyph-name="uni042B" unicode="&#x42b;" horiz-adv-x="876" 
d="M353 427h-177v273h-89v-700h266q110 0 175 57t65 161q0 99 -65.5 154t-174.5 55zM346 81h-170v265h170q153 0 153 -128q0 -137 -153 -137zM700 700v-700h90v700h-90z" />
    <glyph glyph-name="uni0409" unicode="&#x409;" horiz-adv-x="1074" 
d="M793 427q109 0 174 -55t65 -154q0 -104 -64.5 -161t-174.5 -57h-267v618h-289l-9 -347q-2 -93 -22.5 -149.5t-57 -86.5t-93.5 -45l-22 83q38 12 60 33t34 63t14 115l11 416h464v-273h177zM785 81q153 0 153 137q0 128 -153 128h-169v-265h169z" />
    <glyph glyph-name="uni040A" unicode="&#x40a;" horiz-adv-x="1072" 
d="M790 427q109 0 174.5 -55t65.5 -154q0 -104 -65 -161t-175 -57h-266v345h-347v-345h-90v700h90v-273h347v273h90v-273h176zM783 81q153 0 153 137q0 128 -153 128h-169v-265h169z" />
    <glyph glyph-name="uni0405" unicode="&#x405;" horiz-adv-x="626" 
d="M44 157q30 -76 102.5 -121.5t172.5 -45.5q80 0 139.5 24.5t91.5 69.5t32 104q0 142 -208 198l-91 24q-66 18 -96.5 43t-30.5 70q0 47 43 75.5t113 28.5q129 0 177 -106l77 37q-33 74 -97.5 113t-157.5 39q-73 0 -129.5 -24.5t-88 -69t-31.5 -100.5q0 -70 46 -118t134 -72
l91 -24q84 -22 120.5 -50.5t36.5 -71.5q0 -49 -46.5 -78t-124.5 -29q-72 0 -125 35t-73 89z" />
    <glyph glyph-name="uni0404" unicode="&#x404;" horiz-adv-x="747" 
d="M524 109.5q55 34.5 86 96.5l78 -48q-42 -80 -117.5 -124t-171.5 -44q-100 0 -178.5 45.5t-122.5 127t-44 187.5q0 105 44 187t122.5 127.5t178.5 45.5q96 0 171.5 -44t117.5 -124l-78 -48q-31 62 -86 96.5t-125 34.5q-65 0 -118.5 -27.5t-87.5 -79.5t-42 -123h339v-81
h-340q7 -73 40.5 -127t88 -83t120.5 -29q70 0 125 34.5z" />
    <glyph glyph-name="uni042D" unicode="&#x42d;" horiz-adv-x="728" 
d="M507.5 664.5q78.5 -45.5 122.5 -127.5t44 -187t-44 -187t-122.5 -127.5t-178.5 -45.5q-96 0 -171.5 44t-117.5 124l78 48q31 -62 86 -96.5t125 -34.5q67 0 121 29t87.5 83t40.5 127h-339v81h338q-13 107 -80.5 168.5t-167.5 61.5q-70 0 -125 -34.5t-86 -96.5l-78 48
q42 80 117.5 124t171.5 44q100 0 178.5 -45.5z" />
    <glyph glyph-name="uni0406" unicode="&#x406;" horiz-adv-x="263" 
d="M87 700v-700h90v700h-90z" />
    <glyph glyph-name="uni0407" unicode="&#x407;" horiz-adv-x="263" 
d="M87 700v-700h90v700h-90zM-37 872q0 -25 16 -40t40 -15t40 15t16 40t-16 40t-40 15t-40 -15t-16 -40zM187 872q0 -25 16 -40t40 -15t40 15t16 40t-16 40t-40 15t-40 -15t-16 -40z" />
    <glyph glyph-name="uni0408" unicode="&#x408;" horiz-adv-x="531" 
d="M23 132q29 -64 82 -102.5t129 -38.5q63 0 112 26t76.5 77t27.5 123v483h-90v-478q0 -73 -34.5 -110t-94.5 -37q-49 0 -83.5 27.5t-51.5 71.5z" />
    <glyph glyph-name="uni040B" unicode="&#x40b;" horiz-adv-x="781" 
d="M664.5 373.5q63.5 -59.5 63.5 -170.5v-203h-90v190q0 160 -161 160q-84 0 -159 -29v-321h-90v617h-195v83h554v-83h-269v-216q81 32 168 32q115 0 178.5 -59.5z" />
    <glyph glyph-name="uni042E" unicode="&#x42e;" horiz-adv-x="1027" 
d="M810.5 665.5q76.5 -44.5 119.5 -126.5t43 -189t-43 -189t-119.5 -126.5t-174.5 -44.5q-92 0 -166 39.5t-118.5 112.5t-52.5 170h-122v-312h-90v700h90v-306h123q9 95 54 166.5t118 110.5t164 39q98 0 174.5 -44.5zM761.5 107.5q55.5 32.5 86.5 94.5t31 148t-31 148
t-86.5 94.5t-125.5 32.5t-125.5 -32.5t-87 -95t-31.5 -147.5t31.5 -147.5t87 -95t125.5 -32.5t125.5 32.5z" />
    <glyph glyph-name="uni042F" unicode="&#x42f;" horiz-adv-x="669" 
d="M583 0h-90v269h-143l-206 -269h-110l217 274q-84 16 -133 71t-49 138q0 102 65 159.5t178 57.5h271v-700zM493 348v270h-174q-75 0 -115.5 -34.5t-40.5 -100.5q0 -65 40.5 -100t115.5 -35h174z" />
    <glyph glyph-name="uni0402" unicode="&#x402;" horiz-adv-x="775" 
d="M668.5 374q67.5 -59 67.5 -161q0 -101 -62.5 -159t-167.5 -58h-54v81h47q69 0 106 34.5t37 101.5t-42 101t-120 34q-87 0 -162 -29v-319h-90v617h-195v83h554v-83h-269v-215q84 31 171 31q112 0 179.5 -59z" />
    <glyph glyph-name="uni0462" unicode="&#x462;" horiz-adv-x="748" 
d="M476 408q103 0 164.5 -53.5t61.5 -149.5q0 -97 -61.5 -151t-164.5 -54h-280v525h-156v83h156v107h89v-107h292v-83h-292v-117h191zM469 81q139 0 139 124q0 123 -139 123h-184v-247h184z" />
    <glyph glyph-name="uni0472" unicode="&#x472;" horiz-adv-x="809" 
d="M587 664.5q80 -45.5 124.5 -127t44.5 -187.5t-44.5 -187.5t-124.5 -127t-182 -45.5t-182.5 45.5t-125 127t-44.5 187.5t44.5 187.5t125 127t182.5 45.5t182 -45.5zM237 567q-69 -58 -85 -159q46 21 103 21q37 0 72 -7.5t86 -22.5q49 -14 80 -21t64 -7q54 0 102 24
q-13 107 -82 168.5t-172 61.5q-99 0 -168 -58zM528 103.5q55 28.5 90 81.5t42 126q-50 -23 -108 -23q-37 0 -72.5 7.5t-84.5 22.5q-46 14 -78.5 21.5t-65.5 7.5q-54 0 -103 -25q5 -76 39.5 -131.5t91 -85.5t126.5 -30q68 0 123 28.5z" />
    <glyph glyph-name="uni0474" unicode="&#x474;" horiz-adv-x="740" 
d="M294 0l-270 701h96l189 -501q27 -70 27 -91h4q0 19 26 91l152 405q19 50 49.5 75.5t77.5 25.5q36 0 65 -13l-24 -78q-13 6 -30 6q-22 0 -35 -12.5t-24 -38.5l-217 -570h-86z" />
    <glyph glyph-name="uni0492" unicode="&#x492;" horiz-adv-x="590" 
d="M558 700v-83h-351v-241h222v-82h-222v-294h-90v294h-85v82h85v324h441z" />
    <glyph glyph-name="uni0496" unicode="&#x496;" horiz-adv-x="997" 
d="M617 357l263 -275h100v-218h-86v136h-50l-318 331v-331h-90v332l-319 -332h-114l341 357l-313 343h107l298 -331v331h90v-330l297 330h107z" />
    <glyph glyph-name="uni0498" unicode="&#x498;" horiz-adv-x="634" 
d="M514.5 50.5q-66.5 -49.5 -166.5 -57.5l17 -16q38 -34 38 -75q0 -32 -25 -53t-71 -21h-72v75h56q14 0 22.5 7t8.5 18q0 18 -19 38l-25 26q-79 6 -143.5 46.5t-95.5 113.5l74 41q20 -58 75 -88.5t116 -30.5q78 0 130.5 29t52.5 92q0 64 -51 93.5t-139 29.5h-85v80h83
q80 0 123 28t43 86q0 52 -42.5 83t-114.5 31q-122 0 -174 -102l-71 39q32 71 96 108.5t154 37.5q72 0 128 -24t87 -67.5t31 -100.5t-34 -97.5t-96 -56.5q76 -17 116 -61.5t40 -109.5q0 -92 -66.5 -141.5z" />
    <glyph glyph-name="uni049A" unicode="&#x49a;" horiz-adv-x="677" 
d="M277 356l284 -274h100v-218h-86v136h-53l-345 334v-334h-90v700h90v-333l326 333h118z" />
    <glyph glyph-name="uni049C" unicode="&#x49c;" horiz-adv-x="684" 
d="M677 0h-110l-224 312h-20v-189h-75v189h-71v-312h-90v700h90v-306h71v183h75v-183h22l202 306h105l-236 -344z" />
    <glyph glyph-name="uni04A0" unicode="&#x4a0;" horiz-adv-x="809" 
d="M438 356l369 -356h-124l-345 334v-334h-90v618h-216v82h306v-333l326 333h118z" />
    <glyph glyph-name="uni04A2" unicode="&#x4a2;" horiz-adv-x="766" 
d="M648 700v-618h73v-218h-85v136h-78v312h-382v-312h-89v700h89v-306h382v306h90z" />
    <glyph glyph-name="uni04A4" unicode="&#x4a4;" horiz-adv-x="923" 
d="M892 700v-82h-244v-618h-90v312h-382v-312h-89v700h89v-306h382v306h334z" />
    <glyph glyph-name="uni04AA" unicode="&#x4aa;" horiz-adv-x="722" 
d="M610 206q-31 -62 -86 -96.5t-125 -34.5q-72 0 -129 33.5t-89.5 95.5t-32.5 146t32.5 146t89.5 95.5t129 33.5q70 0 125 -34.5t86 -96.5l78 48q-42 80 -117.5 124t-171.5 44q-100 0 -178.5 -45.5t-122.5 -127.5t-44 -187q0 -100 39.5 -179t111 -126t163.5 -54l24 -25
q18 -21 18 -38q0 -11 -8 -18t-22 -7h-56v-75h72q46 0 71 21t25 53q0 41 -38 75l-17 15q84 8 148.5 51t102.5 115z" />
    <glyph glyph-name="uni04AE" unicode="&#x4ae;" horiz-adv-x="703" 
d="M569 700l-217 -276l-217 276h-106l277 -364v-336h90v334l276 366h-103z" />
    <glyph glyph-name="uni04B0" unicode="&#x4b0;" horiz-adv-x="703" 
d="M569 700h103l-274 -363h168v-81h-170v-256h-90v256h-178v81h178l-277 363h106l217 -276z" />
    <glyph glyph-name="uni04B2" unicode="&#x4b2;" horiz-adv-x="699" 
d="M587 82h94v-218h-86v136h-54l-156 209q-51 70 -55 83h-4q-3 -9 -18.5 -33.5t-34.5 -49.5l-156 -209h-104l264 356l-254 344h106l146 -196q4 -6 27.5 -39t26.5 -45h4q6 19 53 84l147 196h104l-253 -343z" />
    <glyph glyph-name="uni04B6" unicode="&#x4b6;" horiz-adv-x="685" 
d="M567 82h73v-218h-85v136h-78v286q-82 -24 -162 -24q-119 0 -187 66t-68 182v190h89v-187q0 -82 44.5 -124.5t125.5 -42.5q82 0 158 20v334h90v-618z" />
    <glyph glyph-name="uni04B8" unicode="&#x4b8;" horiz-adv-x="663" 
d="M486 700h90v-700h-90v316q-73 -20 -134 -23v-170h-76v172q-103 12 -161 75t-58 165v165h90v-161q0 -67 33.5 -107.5t95.5 -51.5v197h76v-201q73 3 134 20v304z" />
    <glyph glyph-name="uni04BA" unicode="&#x4ba;" horiz-adv-x="656" 
d="M526 372q68 -66 68 -182v-190h-90v187q0 82 -44 124.5t-126 42.5q-84 0 -158 -21v-333h-89v700h89v-287q80 25 163 25q119 0 187 -66z" />
    <glyph glyph-name="uni04C0" unicode="&#x4c0;" horiz-adv-x="263" 
d="M87 700v-700h90v700h-90z" />
    <glyph glyph-name="uni04C1" unicode="&#x4c1;" horiz-adv-x="961" 
d="M617 357l313 343h-107l-297 -330v330h-90v-331l-298 331h-107l313 -343l-341 -357h114l319 332v-332h90v331l318 -331h114zM324 933q2 -65 46 -102.5t111 -37.5t111 37.5t46 102.5h-77q-1 -36 -22.5 -55t-57.5 -19t-57 18.5t-22 55.5h-78z" />
    <glyph glyph-name="uni04D0" unicode="&#x4d0;" horiz-adv-x="691" 
d="M669 0l-280 700h-86l-280 -700h94l80 208h296l80 -208h96zM228 287l88 228q27 67 27 88h4q0 -21 27 -88l88 -228h-234zM189 933q2 -65 46 -102.5t111 -37.5t111 37.5t46 102.5h-77q-1 -36 -22.5 -55t-57.5 -19t-57 18.5t-22 55.5h-78z" />
    <glyph glyph-name="uni04D2" unicode="&#x4d2;" horiz-adv-x="691" 
d="M669 0l-280 700h-86l-280 -700h94l80 208h296l80 -208h96zM228 287l88 228q27 67 27 88h4q0 -21 27 -88l88 -228h-234zM178 872q0 -25 16 -40t40 -15t40 15t16 40t-16 40t-40 15t-40 -15t-16 -40zM402 872q0 -25 16 -40t40 -15t40 15t16 40t-16 40t-40 15t-40 -15
t-16 -40z" />
    <glyph glyph-name="uni04D4" unicode="&#x4d4;" horiz-adv-x="1015" 
d="M495 700l-489 -700h102l131 188h274v-188h448v82h-358v232h318v81h-318v223h358v82h-466zM513 491v-224h-157q-59 0 -75 -8l-2 3q18 10 50 57l132 188q47 68 55 90l3 -1q-6 -21 -6 -105z" />
    <glyph glyph-name="uni04D6" unicode="&#x4d6;" horiz-adv-x="615" 
d="M560 700h-473v-700h473v82h-383v232h343v81h-343v223h383v82zM167 933q2 -65 46 -102.5t111 -37.5t111 37.5t46 102.5h-77q-1 -36 -22.5 -55t-57.5 -19t-57 18.5t-22 55.5h-78z" />
    <glyph glyph-name="uni04D8" unicode="&#x4d8;" horiz-adv-x="775" 
d="M722 350q0 107 -46 189t-126.5 126.5t-181.5 44.5q-93 0 -171 -44.5t-124 -123.5l69 -54q36 67 95 102.5t132 35.5q71 0 128.5 -31t92 -89t38.5 -137h-577q-1 -11 -1 -33q0 -104 40.5 -182t115 -120.5t173.5 -42.5q96 0 174.5 44.5t123.5 126t45 188.5zM623 290
q-17 -100 -84 -158t-160 -58q-97 0 -160 57t-75 159h479z" />
    <glyph glyph-name="uni04DA" unicode="&#x4da;" horiz-adv-x="775" 
d="M722 350q0 107 -46 189t-126.5 126.5t-181.5 44.5q-93 0 -171 -44.5t-124 -123.5l69 -54q36 67 95 102.5t132 35.5q71 0 128.5 -31t92 -89t38.5 -137h-577q-1 -11 -1 -33q0 -104 40.5 -182t115 -120.5t173.5 -42.5q96 0 174.5 44.5t123.5 126t45 188.5zM623 290
q-17 -100 -84 -158t-160 -58q-97 0 -160 57t-75 159h479zM209 872q0 -25 16 -40t40 -15t40 15t16 40t-16 40t-40 15t-40 -15t-16 -40zM433 872q0 -25 16 -40t40 -15t40 15t16 40t-16 40t-40 15t-40 -15t-16 -40z" />
    <glyph glyph-name="uni04DC" unicode="&#x4dc;" horiz-adv-x="961" 
d="M617 357l313 343h-107l-297 -330v330h-90v-331l-298 331h-107l313 -343l-341 -357h114l319 332v-332h90v331l318 -331h114zM313 872q0 -25 16 -40t40 -15t40 15t16 40t-16 40t-40 15t-40 -15t-16 -40zM537 872q0 -25 16 -40t40 -15t40 15t16 40t-16 40t-40 15t-40 -15
t-16 -40z" />
    <glyph glyph-name="uni04DE" unicode="&#x4de;" horiz-adv-x="634" 
d="M581 192q0 65 -40 109.5t-116 61.5q62 16 96 56.5t34 97.5t-31 100.5t-87 67.5t-128 24q-90 0 -154 -37.5t-96 -108.5l71 -39q52 102 174 102q72 0 114.5 -31t42.5 -83q0 -58 -43 -86t-123 -28h-83v-80h85q88 0 139 -29.5t51 -93.5q0 -63 -52.5 -92t-130.5 -29
q-61 0 -116 30.5t-75 88.5l-74 -41q34 -80 107 -120.5t159 -40.5q72 0 134.5 20.5t102 65.5t39.5 115zM140 872q0 -25 16 -40t40 -15t40 15t16 40t-16 40t-40 15t-40 -15t-16 -40zM364 872q0 -25 16 -40t40 -15t40 15t16 40t-16 40t-40 15t-40 -15t-16 -40z" />
    <glyph glyph-name="uni04E2" unicode="&#x4e2;" horiz-adv-x="750" 
d="M176 241v459h-89v-700h79l354 476q49 68 56 86l3 -1q-6 -21 -6 -102v-459h90v700h-78l-356 -476q-49 -68 -56 -86l-3 1q6 21 6 102zM531 831v72h-313v-72h313z" />
    <glyph glyph-name="uni04E4" unicode="&#x4e4;" horiz-adv-x="750" 
d="M176 241v459h-89v-700h79l354 476q49 68 56 86l3 -1q-6 -21 -6 -102v-459h90v700h-78l-356 -476q-49 -68 -56 -86l-3 1q6 21 6 102zM207 872q0 -25 16 -40t40 -15t40 15t16 40t-16 40t-40 15t-40 -15t-16 -40zM431 872q0 -25 16 -40t40 -15t40 15t16 40t-16 40t-40 15
t-40 -15t-16 -40z" />
    <glyph glyph-name="uni04E6" unicode="&#x4e6;" horiz-adv-x="809" 
d="M53 350q0 -106 44.5 -187.5t125 -127t182.5 -45.5t182 45.5t124.5 127t44.5 187.5t-44.5 187.5t-124.5 127t-182 45.5t-182.5 -45.5t-125 -127t-44.5 -187.5zM662 350q0 -84 -33 -146t-91.5 -95.5t-132.5 -33.5t-132.5 33.5t-92 95.5t-33.5 146t33.5 146t92 95.5
t132.5 33.5t132.5 -33.5t91.5 -95.5t33 -146zM237 872q0 -25 16 -40t40 -15t40 15t16 40t-16 40t-40 15t-40 -15t-16 -40zM461 872q0 -25 16 -40t40 -15t40 15t16 40t-16 40t-40 15t-40 -15t-16 -40z" />
    <glyph glyph-name="uni04E8" unicode="&#x4e8;" horiz-adv-x="809" 
d="M587 664.5q80 -45.5 124.5 -127t44.5 -187.5t-44.5 -187.5t-124.5 -127t-182 -45.5t-182.5 45.5t-125 127t-44.5 187.5t44.5 187.5t125 127t182.5 45.5t182 -45.5zM232.5 563.5q-69.5 -61.5 -82.5 -168.5h509q-13 107 -82 168.5t-172 61.5t-172.5 -61.5zM528.5 104
q55.5 29 90 83t41.5 127h-511q7 -73 41.5 -127t90.5 -83t124 -29t123.5 29z" />
    <glyph glyph-name="uni04EA" unicode="&#x4ea;" horiz-adv-x="809" 
d="M756 350q0 106 -44.5 187.5t-124.5 127t-182 45.5t-182.5 -45.5t-125 -127t-44.5 -187.5t44.5 -187.5t125 -127t182.5 -45.5t182 45.5t124.5 127t44.5 187.5zM660 314q-7 -73 -41.5 -127t-90 -83t-123.5 -29t-124 29t-90.5 83t-41.5 127h511zM150 395q13 107 82.5 168.5
t172.5 61.5t172 -61.5t82 -168.5h-509zM237 872q0 -25 16 -40t40 -15t40 15t16 40t-16 40t-40 15t-40 -15t-16 -40zM461 872q0 -25 16 -40t40 -15t40 15t16 40t-16 40t-40 15t-40 -15t-16 -40z" />
    <glyph glyph-name="uni04EC" unicode="&#x4ec;" horiz-adv-x="728" 
d="M674 350q0 105 -44 187t-122.5 127.5t-178.5 45.5q-96 0 -171.5 -44t-117.5 -124l78 -48q31 62 86 96.5t125 34.5q100 0 167.5 -61.5t80.5 -168.5h-338v-81h339q-7 -73 -40.5 -127t-87.5 -83t-121 -29q-70 0 -125 34.5t-86 96.5l-78 -48q42 -80 117.5 -124t171.5 -44
q100 0 178.5 45.5t122.5 127.5t44 187zM159 872q0 -25 16 -40t40 -15t40 15t16 40t-16 40t-40 15t-40 -15t-16 -40zM383 872q0 -25 16 -40t40 -15t40 15t16 40t-16 40t-40 15t-40 -15t-16 -40z" />
    <glyph glyph-name="uni04EE" unicode="&#x4ee;" horiz-adv-x="658" 
d="M205 0h96l336 700h-97l-171 -366q-27 -60 -27 -77h-4q0 19 -29 77l-178 366h-100l261 -523zM489 831v72h-313v-72h313z" />
    <glyph glyph-name="uni04F0" unicode="&#x4f0;" horiz-adv-x="658" 
d="M205 0h96l336 700h-97l-171 -366q-27 -60 -27 -77h-4q0 19 -29 77l-178 366h-100l261 -523zM164 872q0 -25 16 -40t40 -15t40 15t16 40t-16 40t-40 15t-40 -15t-16 -40zM388 872q0 -25 16 -40t40 -15t40 15t16 40t-16 40t-40 15t-40 -15t-16 -40z" />
    <glyph glyph-name="uni04F2" unicode="&#x4f2;" horiz-adv-x="658" 
d="M205 0h96l336 700h-97l-171 -366q-27 -60 -27 -77h-4q0 19 -29 77l-178 366h-100l261 -523zM572 933h-97l-99 -136h84zM375 933h-95l-96 -136h84z" />
    <glyph glyph-name="uni04F4" unicode="&#x4f4;" horiz-adv-x="654" 
d="M477 700v-334q-76 -20 -158 -20q-81 0 -125.5 42.5t-44.5 124.5v187h-89v-190q0 -116 68 -182t187 -66q80 0 162 24v-286h90v700h-90zM146 872q0 -25 16 -40t40 -15t40 15t16 40t-16 40t-40 15t-40 -15t-16 -40zM370 872q0 -25 16 -40t40 -15t40 15t16 40t-16 40t-40 15
t-40 -15t-16 -40z" />
    <glyph glyph-name="uni04F8" unicode="&#x4f8;" horiz-adv-x="876" 
d="M353 427h-177v273h-89v-700h266q110 0 175 57t65 161q0 99 -65.5 154t-174.5 55zM346 81h-170v265h170q153 0 153 -128q0 -137 -153 -137zM700 700v-700h90v700h-90zM275 872q0 -25 16 -40t40 -15t40 15t16 40t-16 40t-40 15t-40 -15t-16 -40zM499 872q0 -25 16 -40
t40 -15t40 15t16 40t-16 40t-40 15t-40 -15t-16 -40z" />
    <glyph glyph-name="uni0430" unicode="&#x430;" horiz-adv-x="556" 
d="M486 315q0 67 -31 111.5t-82 66t-112 21.5q-65 0 -116.5 -26t-79.5 -75l63 -47q18 33 52.5 52t79.5 19q61 0 100.5 -32t39.5 -98v-61q-49 55 -153 55q-56 0 -102.5 -18.5t-74 -53.5t-27.5 -83q0 -73 58 -114.5t144 -41.5q110 0 158 60v-50h83v315zM402 146
q0 -42 -37.5 -65t-96.5 -23q-60 0 -98 22.5t-38 65.5t38 65.5t98 22.5q59 0 96.5 -23t37.5 -65z" />
    <glyph glyph-name="uni0431" unicode="&#x431;" horiz-adv-x="625" 
d="M456 470.5q55 -32.5 86.5 -91t31.5 -132.5t-32 -132.5t-89.5 -91.5t-130.5 -33q-76 0 -135 32t-92 92t-33 143v47q0 162 64 268t185 138l191 50l16 -79l-200 -53q-72 -19 -116 -78t-56 -146q28 47 76 73t109 26q70 0 125 -32.5zM440 116q45 49 45 131q0 81 -46.5 130
t-122.5 49q-73 0 -119.5 -49t-46.5 -130q0 -85 47.5 -132.5t125.5 -47.5q72 0 117 49z" />
    <glyph glyph-name="uni0432" unicode="&#x432;" horiz-adv-x="557" 
d="M479 222q28 -33 28 -79q0 -70 -49 -106.5t-136 -36.5h-247v505h226q85 0 132.5 -34t47.5 -100q0 -37 -21.5 -64t-58.5 -39q50 -13 78 -46zM161 431v-135h138q45 0 69.5 15.5t24.5 51.5q0 68 -94 68h-138zM318 74q101 0 101 76q0 77 -101 77h-157v-153h157z" />
    <glyph glyph-name="uni0433" unicode="&#x433;" horiz-adv-x="440" 
d="M75 0v505h329v-76h-243v-429h-86z" />
    <glyph glyph-name="uni0453" unicode="&#x453;" horiz-adv-x="440" 
d="M75 0h86v429h243v76h-329v-505zM372 738h-97l-97 -136h85z" />
    <glyph glyph-name="uni0491" unicode="&#x491;" horiz-adv-x="440" 
d="M322 505v136h82v-212h-243v-429h-86v505h247z" />
    <glyph glyph-name="uni0434" unicode="&#x434;" horiz-adv-x="627" 
d="M518 75h64v-213h-82v138h-392v-138h-82v213h48q59 23 65 153l11 277h368v-430zM225 223q-4 -102 -55 -148h262v354h-200z" />
    <glyph glyph-name="uni0435" unicode="&#x435;" horiz-adv-x="573" 
d="M523 233q1 8 1 25q0 76 -30 134t-82.5 90t-118.5 32q-70 0 -125 -32t-86 -91.5t-31 -137.5q0 -77 31.5 -137t88 -93t126.5 -33q65 0 119.5 23.5t92.5 74.5l-60 51q-51 -72 -150 -72q-67 0 -111 43.5t-49 122.5h384zM141 299q10 67 50.5 104t100.5 37q57 0 95 -35.5
t47 -105.5h-293z" />
    <glyph glyph-name="uni0450" unicode="&#x450;" horiz-adv-x="573" 
d="M523 233q1 8 1 25q0 76 -30 134t-82.5 90t-118.5 32q-70 0 -125 -32t-86 -91.5t-31 -137.5q0 -77 31.5 -137t88 -93t126.5 -33q65 0 119.5 23.5t92.5 74.5l-60 51q-51 -72 -150 -72q-67 0 -111 43.5t-49 122.5h384zM141 299q10 67 50.5 104t100.5 37q57 0 95 -35.5
t47 -105.5h-293zM355 602l-97 136h-97l109 -136h85z" />
    <glyph glyph-name="uni0451" unicode="&#x451;" horiz-adv-x="573" 
d="M523 233q1 8 1 25q0 76 -30 134t-82.5 90t-118.5 32q-70 0 -125 -32t-86 -91.5t-31 -137.5q0 -77 31.5 -137t88 -93t126.5 -33q65 0 119.5 23.5t92.5 74.5l-60 51q-51 -72 -150 -72q-67 0 -111 43.5t-49 122.5h384zM141 299q10 67 50.5 104t100.5 37q57 0 95 -35.5
t47 -105.5h-293zM124 677q0 -25 16 -40t40 -15t40 15t16 40t-16 40t-40 15t-40 -15t-16 -40zM348 677q0 -25 16 -40t40 -15t40 15t16 40t-16 40t-40 15t-40 -15t-16 -40z" />
    <glyph glyph-name="uni0436" unicode="&#x436;" horiz-adv-x="738" 
d="M500 255l224 -255h-104l-208 242v-242h-86v244l-209 -244h-103l223 255l-212 250h102l199 -240v240h86v-239l198 239h103z" />
    <glyph glyph-name="uni0437" unicode="&#x437;" horiz-adv-x="521" 
d="M440 217q30 -31 30 -76q0 -73 -59.5 -112t-150.5 -39q-77 0 -136 30t-91 88l70 40q18 -39 58 -60.5t92 -21.5q58 0 94 18.5t36 62.5q0 78 -133 78h-74v68h73q52 0 84.5 18t32.5 53q0 37 -30.5 56t-82.5 19q-94 0 -136 -70l-66 37q28 52 81.5 80t126.5 28q85 0 139.5 -39
t54.5 -103q0 -37 -25.5 -65t-70.5 -44q53 -15 83 -46z" />
    <glyph glyph-name="uni0438" unicode="&#x438;" horiz-adv-x="596" 
d="M75 -1v506h86v-284q0 -81 -6 -102l3 -1q7 19 56 85l231 303h75v-506h-86v283q0 81 6 102l-3 1q-4 -10 -20 -34.5t-36 -50.5l-229 -302h-77z" />
    <glyph glyph-name="uni0439" unicode="&#x439;" horiz-adv-x="596" 
d="M75 -1h77l229 302q20 26 36 50.5t20 34.5l3 -1q-6 -21 -6 -102v-283h86v506h-75l-231 -303q-49 -66 -56 -85l-3 1q6 21 6 102v284h-86v-506zM141 738q2 -65 46 -102.5t111 -37.5t111 37.5t46 102.5h-77q-1 -36 -22.5 -55t-57.5 -19t-57 18.5t-22 55.5h-78z" />
    <glyph glyph-name="uni045D" unicode="&#x45d;" horiz-adv-x="596" 
d="M75 -1h77l229 302q20 26 36 50.5t20 34.5l3 -1q-6 -21 -6 -102v-283h86v506h-75l-231 -303q-49 -66 -56 -85l-3 1q6 21 6 102v284h-86v-506zM361 602l-97 136h-97l109 -136h85z" />
    <glyph glyph-name="uni043A" unicode="&#x43a;" horiz-adv-x="502" 
d="M252 260l227 245h-104l-213 -238v238h-87v-505h87v245l225 -245h106z" />
    <glyph glyph-name="uni045C" unicode="&#x45c;" horiz-adv-x="502" 
d="M252 260l227 245h-104l-213 -238v238h-87v-505h87v245l225 -245h106zM389 738h-97l-97 -136h85z" />
    <glyph glyph-name="uni043B" unicode="&#x43b;" horiz-adv-x="575" 
d="M500 0h-86v429h-207l-5 -221q-2 -99 -40.5 -149t-111.5 -69l-21 78q45 14 67 46.5t24 104.5l8 286h372v-505z" />
    <glyph glyph-name="uni043C" unicode="&#x43c;" horiz-adv-x="666" 
d="M332 260l176 245h82v-505h-86v280q0 83 6 104l-3 1q-8 -20 -56 -87l-110 -152h-17l-110 150q-49 68 -56 86l-3 -1q6 -21 6 -103v-278h-86v505h78z" />
    <glyph glyph-name="uni043D" unicode="&#x43d;" horiz-adv-x="593" 
d="M432 298v207h86v-505h-86v222h-271v-222h-86v505h86v-207h271z" />
    <glyph glyph-name="uni043E" unicode="&#x43e;" horiz-adv-x="610" 
d="M51 253q0 -77 33 -136.5t91 -93t130 -33.5t130 33.5t91 93t33 136.5q0 76 -33 135.5t-91 92.5t-130 33t-130 -33t-91 -92.5t-33 -135.5zM472 253q0 -85 -46.5 -135t-120.5 -50q-73 0 -119.5 50t-46.5 135q0 84 46.5 133.5t119.5 49.5t120 -49.5t47 -133.5z" />
    <glyph glyph-name="uni043F" unicode="&#x43f;" horiz-adv-x="584" 
d="M162 0h-87v505h434v-505h-86v429h-261v-429z" />
    <glyph glyph-name="uni0440" unicode="&#x440;" horiz-adv-x="623" 
d="M571 253q0 76 -30.5 135.5t-84 92.5t-119.5 33q-60 0 -104.5 -28.5t-71.5 -77.5v97h-86v-711h86v303q27 -49 71.5 -77.5t104.5 -28.5q66 0 119.5 33t84 92.5t30.5 136.5zM484 252q0 -85 -45 -134t-117 -49q-73 0 -118 49t-45 134t45.5 134.5t117.5 49.5t117 -49.5
t45 -134.5z" />
    <glyph glyph-name="uni0441" unicode="&#x441;" horiz-adv-x="562" 
d="M51 253q0 -76 32.5 -136t89.5 -93t128 -33q72 0 132 31.5t92 99.5l-70 41q-23 -48 -63.5 -71t-90.5 -23q-45 0 -82 21.5t-58.5 63t-21.5 99.5q0 57 21.5 99t58.5 63.5t82 21.5q50 0 90.5 -23t63.5 -72l70 41q-32 68 -92 99.5t-132 31.5q-71 0 -128 -33t-89.5 -92.5
t-32.5 -135.5z" />
    <glyph glyph-name="uni0442" unicode="&#x442;" horiz-adv-x="510" 
d="M299 0h-86v429h-177v76h438v-76h-175v-429z" />
    <glyph glyph-name="uni0443" unicode="&#x443;" horiz-adv-x="547" 
d="M253 255l-123 250h-98l205 -407l-148 -304h95l345 711h-94l-124 -251q-27 -60 -27 -75h-4q0 9 -8.5 31t-18.5 45z" />
    <glyph glyph-name="uni045E" unicode="&#x45e;" horiz-adv-x="547" 
d="M253 255l-123 250h-98l205 -407l-148 -304h95l345 711h-94l-124 -251q-27 -60 -27 -75h-4q0 9 -8.5 31t-18.5 45zM125 738q2 -65 46 -102.5t111 -37.5t111 37.5t46 102.5h-77q-1 -36 -22.5 -55t-57.5 -19t-57 18.5t-22 55.5h-78z" />
    <glyph glyph-name="uni0444" unicode="&#x444;" horiz-adv-x="722" 
d="M638.5 117.5q-33.5 -58.5 -94.5 -92t-140 -35.5v-196h-86v196q-79 3 -140 36.5t-94.5 91.5t-33.5 134t33.5 134t94.5 91.5t140 36.5v236h86v-236q79 -2 140 -35.5t94.5 -92t33.5 -134.5t-33.5 -134.5zM403 66q81 3 131 51t50 135t-50 135t-131 51v-372zM188 117
q50 -48 131 -51v372q-81 -3 -131 -51t-50 -135t50 -135z" />
    <glyph glyph-name="uni0445" unicode="&#x445;" horiz-adv-x="528" 
d="M316 258l188 247h-101l-88 -114q-17 -22 -31 -44t-17 -32h-3q-4 17 -48 76l-88 114h-104l189 -248l-197 -257h100l97 126q17 22 31 44t17 32h4q2 -9 15.5 -30.5t31.5 -45.5l97 -126h103z" />
    <glyph glyph-name="uni0447" unicode="&#x447;" horiz-adv-x="551" 
d="M390 505h86v-505h-86v198q-69 -21 -135 -21q-98 0 -148.5 47t-50.5 135v146h86v-135q0 -59 29.5 -87.5t90.5 -28.5q64 0 128 18v233z" />
    <glyph glyph-name="uni0446" unicode="&#x446;" horiz-adv-x="607" 
d="M498 505v-429h64v-212h-82v136h-405v505h87v-429h250v429h86z" />
    <glyph glyph-name="uni0448" unicode="&#x448;" horiz-adv-x="843" 
d="M682 76v429h86v-505h-693v505h87v-429h217v429h86v-429h217z" />
    <glyph glyph-name="uni0449" unicode="&#x449;" horiz-adv-x="877" 
d="M768 505v-429h64v-212h-82v136h-675v505h87v-429h217v429h86v-429h217v429h86z" />
    <glyph glyph-name="uni045F" unicode="&#x45f;" horiz-adv-x="573" 
d="M412 505h86v-505h-170v-136h-82v136h-171v505h87v-429h250v429z" />
    <glyph glyph-name="uni044C" unicode="&#x44c;" horiz-adv-x="532" 
d="M308 318q83 0 132.5 -42.5t49.5 -116.5t-49.5 -116.5t-132.5 -42.5h-233v505h87v-187h146zM301 74q101 0 101 85t-101 85h-139v-170h139z" />
    <glyph glyph-name="uni044A" unicode="&#x44a;" horiz-adv-x="626" 
d="M402 318q83 0 132.5 -42.5t49.5 -116.5t-49.5 -116.5t-132.5 -42.5h-233v429h-133v76h220v-187h146zM395 74q101 0 101 85t-101 85h-139v-170h139z" />
    <glyph glyph-name="uni044B" unicode="&#x44b;" horiz-adv-x="739" 
d="M308 318h-146v187h-87v-505h233q83 0 132.5 42.5t49.5 116.5t-49.5 116.5t-132.5 42.5zM577 505v-505h86v505h-86zM301 74h-139v170h139q101 0 101 -85t-101 -85z" />
    </font>
</defs>
</svg>
